Классический форум-трекер
canvas not supported
Нас вместе: 4 064 980

Альф / Alf (1986-1990) DVDRip [H.264] (Сезон 1-4, 102 серии из 102) [СТС]


Страницы:  1, 2  След. 
 
RSS
Начать новую тему   Ответить на тему    Торрент-трекер NNM-Club -> Классика сериалов и многосерийное Кино до 90-х -> Зарубежная Классика, Сериалы и многосерийные Фильмы
Автор Сообщение
trankvilla ®
Стаж: 6 лет 3 мес.
Сообщений: 115
Ratio: 50,969
Поблагодарили: 7136
100%
Откуда: Казань
russia.gif
Альф / Alf (1986-1990) DVDRip [H.264] (Сезон 1-4, 102 серии из 102) [СТС]
Год выпуска: 1986-1990
Жанр: Семейный, Комедия, Фантастика
Перевод: Многоголосый закадровый, профессиональный (Киностудия «Фильм-экспорт» по заказу «СТС»)

Режиссер: Ник Хавинга, Берт Бринкерхофф, Гари Симокава
Актеры: Пол Фаско, Макс Райт, Энн Шедин, Андреа Элсон, Бенджи Грегори, Джон ЛаМотта, Лиз Шеридан, Джош Блейк, Чарльз Никерсон, Михали «Мишу» Месзарос

Описание фильма:
Его родина — планета Мелмак, место жительства — Лос-Анджелес. Он самоуверен, капризен и жаден. Он порядочный обжора, грубиян и ворчун. Он обожает кошек (в кулинарном смысле), его любопытство не знает границ, а разрушительные способности поражают воображение. Но помыслы его чисты, душа открыта, а сердце отзывчиво. Он — Альф!

Продолжительность: 102 х ~00:22:00
Качество видео: DVDRip
Видео: 720x544 (4:3), 29,970 fps, AVC/MPEG-4 (x264) High @ L3.1 ~2080 kbps avg, 0.177 bit/pixel
Аудио: 48 kHz, AC3 Dolby Digital, 2/0 (L,R) ch, ~192 kbps avg (Русский)




Все релизы Альф / Alf на NNM-Club.me
Сезон 1:
01 серия. Альф
02 серия. Незнакомцы в ночи
03 серия. В поисках Лаки
04 серия. Пенсильвания 6-5000
05 серия. Продолжая верить
06 серия. Только для твоих глаз
07 серия. Помоги мне, Ронда
08 серия. Это не сделает мои карие глаза голубыми?
09 серия. Прыжок
10 серия. Детка, ты можешь повести мою машину
11 серия. Снова в пути
12 серия. О, Таннербаум!
13 серия. Воссоединение матери и ребенка
14 серия. Немного мыла
15 серия. Я изменил свое поведение
16-17 серия. Попробуй вспомнить
18 серия. Пограничная песня
19 серия. Дикие штучки
20 серия. Взгляд изнутри
21 серия. Глядя в окно
22 серия. Не так просто быть зеленым
23 серия. Азартный игрок
24 серия. Ох уж эта наука
25 серия. Кукарача
26 серия. Полетай со мной

General
Complete name : E:\Раздача\ALF all seasons\1 Season\01 Episode.mkv
Format : Matroska
File size : 342 MiB
Duration : 20mn 36s
Overall bit rate : 2 322 Kbps
Movie name : alf_s01_e01_[[SPAM]]
Encoded date : UTC 2012-11-28 12:19:30
Writing application : mkvmerge v4.0.0 ('The Stars were mine') сборка от Jun 6 2010 16:18:42
Writing library : libebml v1.0.0 + libmatroska v1.0.0

Video
ID : 1
Format : AVC
Format/Info : Advanced Video Codec
Format profile : High@L3.1
Format settings, CABAC : No
Format settings, ReFrames : 8 frames
Muxing mode : Container profile=Unknown@3.1
Codec ID : V_MPEG4/ISO/AVC
Duration : 20mn 35s
Bit rate : 2 083 Kbps
Width : 720 pixels
Height : 544 pixels
Display aspect ratio : 4:3
Frame rate mode : Variable
Frame rate : 29.970 fps
Resolution : 8 bits
Colorimetry : 4:2:0
Scan type : Progressive
Bits/(Pixel*Frame) : 0.177
Stream size : 307 MiB (90%)
Title : alf_s01_e01_[[SPAM]]

Audio
ID : 2
Format : AC-3
Format/Info : Audio Coding 3
Codec ID : A_AC3
Duration : 20mn 36s
Bit rate mode : Constant
Bit rate : 192 Kbps
Channel(s) : 2 channels
Channel positions : L R
Sampling rate : 48.0 KHz
Stream size : 28.3 MiB (8%)
Title : 48 kHz, AC3, 6 ch, ~192 kbps avg
Language : Russian

Скриншоты:

Сезон 2:
01 серия. Туда и обратно
02 серия. Баллада острова Гиллигана
03 серия. Посмотри на меня
04 серия. Блюз свадебных колокольчиков
05 серия. Лучшее время
06 серия. Оживление вечеринки
07 серия. Красотка
08 серия. Со мной что-то не так
09 серия. Ночной поезд
10 серия. Разве это не романтично?
11 серия. Привет начальству
12-13 серия. Особое рождество Альфа
14 серия. Мальчик за соседней дверью
15 серия. Есть у меня свидетели?
16 серия. Нам так жаль, дядя Альберт
17 серия. Кто-нибудь, присмотрите за мной. Часть 1
18 серия. Кто-нибудь, присмотрите за мной. Часть 2
19 серия. Нам надо отсюда выбраться
20 серия. Ты только гончая
21 серия. Покажи-ка мне свой лучший удар
22 серия. Переезд
23 серия. Я - твоя кукла
24 серия. Текила
25 серия. Мы - семья
26 серия. Мечты о колледже

General
Complete name : E:\Раздача\ALF all seasons\2 Season\01 Episode.mkv
Format : Matroska
File size : 341 MiB
Duration : 20mn 55s
Overall bit rate : 2 277 Kbps
Movie name : alf_s01_e01_[[SPAM]]
Encoded date : UTC 2012-11-30 07:22:34
Writing application : mkvmerge v4.0.0 ('The Stars were mine') сборка от Jun 6 2010 16:18:42
Writing library : libebml v1.0.0 + libmatroska v1.0.0

Video
ID : 1
Format : AVC
Format/Info : Advanced Video Codec
Format profile : High@L3.1
Format settings, CABAC : No
Format settings, ReFrames : 8 frames
Muxing mode : Container profile=Unknown@3.1
Codec ID : V_MPEG4/ISO/AVC
Duration : 20mn 54s
Bit rate : 2 040 Kbps
Width : 720 pixels
Height : 544 pixels
Display aspect ratio : 4:3
Frame rate mode : Variable
Frame rate : 29.970 fps
Resolution : 8 bits
Colorimetry : 4:2:0
Scan type : Progressive
Bits/(Pixel*Frame) : 0.174
Stream size : 305 MiB (89%)
Title : alf_s02_e01_[[SPAM]]

Audio
ID : 2
Format : AC-3
Format/Info : Audio Coding 3
Codec ID : A_AC3
Duration : 20mn 55s
Bit rate mode : Constant
Bit rate : 192 Kbps
Channel(s) : 2 channels
Channel positions : L R
Sampling rate : 48.0 KHz
Stream size : 28.7 MiB (8%)
Title : 48 kHz, AC3, 6 ch, ~192 kbps avg
Language : Russian

Скриншоты:

Сезон 3:
01 серия. Остановись во имя любви
02 серия. Лестница на небеса
03 серия. Разойтись не так уж просто
04-05 серия. Сегодня вечером
06 серия. Обещания, обещания
07 серия. Индейка на сене. Часть 1
08 серия. Индейка на сене. Часть 2
09 серия. Перемены
10 серия. Страницы моей памяти
11 серия. Снова один, естественно...
12 серия. А вы верите в волшебство?
13 серия. Беглец
14 серия. Ответный удар
15 серия. Под подозрением
16 серия. Любовь к детям
17 серия. Живя в боязни
18 серия. В потемках любви
19 серия. Суеверие
20 серия. Между двумя поклонниками
21 серия. Похороны друзей
22 серия. Не бойся темноты
23 серия. Детка, твоя мама прячется в тени
24 серия. Как в старом кино
25 серия. Землетрясение
26 серия. Рождение ребенка

General
Complete name : E:\Раздача\ALF all seasons\3 Season\01 Episode.mkv
Format : Matroska
File size : 351 MiB
Duration : 21mn 21s
Overall bit rate : 2 298 Kbps
Encoded date : UTC 2012-12-02 13:29:10
Writing application : mkvmerge v4.0.0 ('The Stars were mine') сборка от Jun 6 2010 16:18:42
Writing library : libebml v1.0.0 + libmatroska v1.0.0

Video
ID : 1
Format : AVC
Format/Info : Advanced Video Codec
Format profile : High@L3.1
Format settings, CABAC : No
Format settings, ReFrames : 8 frames
Muxing mode : Container profile=Unknown@3.1
Codec ID : V_MPEG4/ISO/AVC
Duration : 21mn 20s
Bit rate : 2 060 Kbps
Width : 720 pixels
Height : 540 pixels
Display aspect ratio : 4:3
Frame rate mode : Variable
Frame rate : 29.970 fps
Resolution : 8 bits
Colorimetry : 4:2:0
Scan type : Progressive
Bits/(Pixel*Frame) : 0.177
Stream size : 314 MiB (90%)
Title : alf_s03_e01_[[SPAM]]

Audio
ID : 2
Format : AC-3
Format/Info : Audio Coding 3
Codec ID : A_AC3
Duration : 21mn 21s
Bit rate mode : Constant
Bit rate : 192 Kbps
Channel(s) : 2 channels
Channel positions : L R
Sampling rate : 48.0 KHz
Stream size : 29.3 MiB (8%)
Title : 48 kHz, AC3, 2 ch, ~192 kbps avg
Language : Russian

Скриншоты:

Сезон 4:
01 серия. Вернись, детка!
02 серия. Ложь
03 серия. Взять живым или мертвым
04 серия. Мы при деньгах!
05 серия. Игра ума
06 серия. Игра на чувствах
07 серия. Он не плохой, он - мой брат
08 серия. Когда я в первый раз увидел тебя...
09 серия. Живи и дай умереть
10 серия. Разошлись, чтобы воссоединиться
11 серия. Счастливы вместе
12 серия. Лихорадка
13 серия. Это моя вечеринка
14 серия. Заставь их смеяться
15 серия. И на камнях растет любовь
16 серия. Правильные цвета
17 серия. Давайте-ка проведем эту старую церемонию
18 серия. Будущее слишком ярко, я лучше в тенечке...
19 серия. Когда мне будет 64
20 серия. Мистер песочный человек
21 серия. Все еще жив
22 серия. Голоден как волк
23 серия. Хочу быть сама собой
24 серия. Считайте меня пропавшим

General
Complete name : E:\Раздача\ALF all seasons\4 Season\01 Episode.mkv
Format : Matroska
File size : 310 MiB
Duration : 23mn 14s
Overall bit rate : 1 866 Kbps
Encoded date : UTC 2012-12-06 14:09:26
Writing application : mkvmerge v4.0.0 ('The Stars were mine') сборка от Jun 6 2010 16:18:42
Writing library : libebml v1.0.0 + libmatroska v1.0.0

Video
ID : 1
Format : AVC
Format/Info : Advanced Video Codec
Format profile : High@L3.1
Format settings, CABAC : No
Format settings, ReFrames : 8 frames
Muxing mode : Container profile=Unknown@3.1
Codec ID : V_MPEG4/ISO/AVC
Duration : 23mn 14s
Bit rate : 1 637 Kbps
Width : 720 pixels
Height : 540 pixels
Display aspect ratio : 4:3
Frame rate mode : Variable
Frame rate : 25.000 fps
Resolution : 8 bits
Colorimetry : 4:2:0
Scan type : Progressive
Bits/(Pixel*Frame) : 0.168
Stream size : 272 MiB (88%)
Title : alf_s04_e01_[[SPAM]]

Audio
ID : 2
Format : AC-3
Format/Info : Audio Coding 3
Codec ID : A_AC3
Duration : 23mn 14s
Bit rate mode : Constant
Bit rate : 192 Kbps
Channel(s) : 2 channels
Channel positions : L R
Sampling rate : 48.0 KHz
Stream size : 31.9 MiB (10%)
Title : 48 kHz, AC3, 2 ch, ~192 kbps avg
Language : Russian

Скриншоты:

Скриншоты:


Время раздачи: По возможности,до 5 скачавших
[NNM-Club.me]_ALF all seasons.torrent
 Торрент: Платиновая раздача  Зарегистрирован
 
Скачать


Примагнититься
 Зарегистрирован:   15 Фев 2014 15:13:41
 Размер:   34,5 GB  (
 Рейтинг:   5 (Голосов: 188)
 Поблагодарили:   572
 Проверка:   Оформление проверено модератором 16 Фев 2014 17:52:17
Как cкачать  ·  Как раздать  ·  Правильно оформить  ·  Поднять ратио!  
Baltazar27
Стаж: 5 лет 2 мес.
Сообщений: 50
Ratio: 8,544
100%
Откуда: СССР
kazakhstan.gif
Супер Мега Раздача Огромное Спасибо!!!Эх Детство было дело....
Druz
Стаж: 9 лет 4 мес.
Сообщений: 162
Ratio: 6,672
100%
russia.gif
Согласен полностью, орден за это надо давать!!!!!!!
mobilas
Стаж: 9 лет 7 мес.
Сообщений: 66
Ratio: 17,152
100%
Откуда: Украина
ukraine.gif
и всё таки лишний раз приходится признать что в украинской озвучке, этот сериал намного более смешней..
парадоксально, но факт
heta
Стаж: 9 лет 8 мес.
Сообщений: 193
Ratio: 27,363
Поблагодарили: 2
100%
ussr.gif
Я свою коллекцию Альфа потерял дважды - первый раз на видеокассетах (старательно писал с телика). Второй раз с винтом, причем качал, когда еще не было безлимита...
Раздающему - огромное спасибо. Альф - как Футурама, как Симпсоны, как M.A.S.H., как теория Большого взрыва - 200%-ный мастхев в видеотеке.
mobilas
Стаж: 9 лет 7 мес.
Сообщений: 66
Ratio: 17,152
100%
Откуда: Украина
ukraine.gif
heta писал(а): Перейти к сообщению
Я свою коллекцию Альфа потерял дважды - первый раз на видеокассетах (старательно писал с телика).

а у меня до сих пор стоят 10 кассет BASF по 240 минут, как реликвия. Тоже в свое время писал с эфира.
DeBill35
Стаж: 9 лет 9 мес.
Сообщений: 125
Ratio: 3,87
Раздал: 2,423 TB
4.89%
albania.gif
Не забывайте камрады про гениальную озвучку Альфа Александром Клюквиным :умничает:
Mennen
Uploader 500+
Стаж: 7 лет 5 мес.
Сообщений: 736
Ratio: 361,094
Раздал: 513,5 TB
100%
russia.gif
Порадую жену :респект:
III GriMM III
 
Стаж: 9 лет 8 мес.
Сообщений: 647
Ratio: 10,627
Раздал: 37,37 TB
Поблагодарили: 514
96.19%
russia.gif
Ностальгия... как много связано с этим сериалом...однозначно - кач =)
dobikun
Стаж: 8 лет 3 мес.
Сообщений: 149
Ratio: 1,818
100%
Откуда: Совсем не горжусь страной
estonia.gif
спасибооооооооооооооооооооооо
laoshe2
Uploader 100+
Стаж: 7 лет 3 мес.
Сообщений: 627
Ratio: 343,651
100%
russia.gif
:цветок: Это как подарок ко дню рождения :приветствую:
gerda13
Стаж: 7 лет 8 мес.
Сообщений: 37
Ratio: 41,124
100%
Альф супер! Спасибо!
Ignotus
Стаж: 6 лет 1 мес.
Сообщений: 1273
Ratio: 282,548
100%
ussr.gif
Первый раз смотрел Альфа на родине в 86 году. Мне было тогда 9 лет.Когда приехал в СССР, в 1990, рассказывал знакомым про этот сериал. А в переводе смотрел его где-то в 96. Вот такая разница в 10 лет.

Сериал просто супер!!!!! Всем раздающим спасибо!
Triptikon
Стаж: 7 лет 9 мес.
Сообщений: 64
Ratio: 0,403
Поблагодарили: 47
0%
ukraine.gif
Все серии в правильном порядке? Рассинхрона нет?
YuKu
Стаж: 8 лет 9 мес.
Сообщений: 72
Ratio: 35,834
100%
spain.gif
Озвучка, к сожалению, не та... С Александром Клюквиным Альф - это Альф! А в этой озвучке что-то не то.
Показать сообщения:   
Начать новую тему   Ответить на тему    Торрент-трекер NNM-Club -> Классика сериалов и многосерийное Кино до 90-х -> Зарубежная Классика, Сериалы и многосерийные Фильмы Часовой пояс: GMT + 3
Страницы:  1, 2  След.
Страница 1 из 2