Классический форум-трекер
canvas not supported
Нас вместе: 4 069 234

Сэм и Макс: Вольная полиция / Sam & Max: Freelance Police (1997) DVDRip (1 сезон: 1-2 серия из 13) [Обновляемая]


 
 
RSS
Начать новую тему   Ответить на тему    Торрент-трекер NNM-Club -> Архив торрентов -> Архив Мультфильмов
Автор Сообщение
wgiw ®
RG Всё лучшее - детям!
Uploader 100+
 
Стаж: 6 лет 4 мес.
Сообщений: 3065
Ratio: 250,698
Раздал: 145,4 TB
Поблагодарили: 365307
100%
ussr.gif
Сэм и Макс: Вольная полиция / Sam & Max: Freelance Police (1997) DVDRip (1 сезон: 1-2 серия из 13) [Обновляемая]
Год выпуска: 1997
Жанр: Детский, Приключения, Комедия

Описание:
Мультсериал основан на персонажах комиксов «Sam & Max: Freelance Police», созданных художником Стивом Перселлом в 1987 году. Поскольку Сэм и Макс — ньюйоркские детективы, их методика ведения расследования в основном заключается в некорректных вопросах свидетелям и дозированном применении насилия (в тех случаях, когда за потенциальным подозреваемым нет явного численного или силового превосходства). Они передвигаются на DeSoto Adventurer 1960-го года выпуска полицейской раскраски в чёрный и белый цвета, эта машина абсолютно неуничтожима и при любом развитии событий тем или иным способом возвращается к своим владельцам.

Режиссер: Стив Уайтхаус
Персонажи: Гарри Аткин, Роберт Тинклер, Трэйси Мур, Патрик МакКенна

Продолжительность: 2 x ~ 00:21:03
Качество видео: DVDRip
Перевод: Многоголосый закадровый

Видеокодек: MPEG-4 AVC/H.264
Битрейт видео: ~1584 Кбит/сек
Размер кадра: 640x480
Аудио #1: Русский (AC-3, 2.0, 192 Кбит/сек)
Аудио #2: Английский (AC-3, 2.0, 192 Кбит/сек)

Общее
Уникальный идентификатор : 241088128792735727590955619316413141918 (0xB55FE27847965E1B93CEB2FA8726939E)
Полное имя : Sam & Max - Freelance Police (DVDRip-AVC)\01. The Thing That Wouldn't Stop It.mkv
Формат : Matroska
Версия формата : Version 1
Размер файла : 302 Мбайт
Продолжительность : 21 м.
Общий поток : 2008 Кбит/сек
Дата кодирования : UTC 2014-02-09 09:18:03
Программа кодирования : mkvmerge v2.3.0 ('Freak U') built on Sep 8 2008 18:32:16
Библиотека кодирования : libebml v0.7.7 + libmatroska v0.8.1

Видео
Идентификатор : 1
Формат : AVC
Формат/Информация : Advanced Video Codec
Профиль формата : High@L3.0
Параметр CABAC формата : Да
Параметр ReFrames формата : 3 кадра
Идентификатор кодека : V_MPEG4/ISO/AVC
Битрейт : 1584 Кбит/сек
Номинальный битрейт : 1969 Кбит/сек
Ширина : 640 пикселей
Высота : 480 пикселей
Соотношение сторон : 4:3
Режим частоты кадров : Переменный
Частота кадров в оригинале : 29,970 кадров/сек
Цветовое пространство : YUV
Субдискретизация насыщенности : 4:2:0
Битовая глубина : 8 бит
Тип развёртки : Прогрессивная
Бит/(Пиксели*Кадры) : 0.214
Библиотека кодирования : x264 core 79
Настройки программы : cabac=1 / ref=3 / deblock=1:0:0 / analyse=0x3:0x113 / me=hex / subme=7 / psy=1 / psy_rd=1.0:0.0 / mixed_ref=1 / me_range=16 / chroma_me=1 / trellis=1 / 8x8dct=1 / cqm=0 / deadzone=21,11 / chroma_qp_offset=-2 / threads=6 / nr=0 / decimate=1 / mbaff=0 / constrained_intra=0 / bframes=3 / b_pyramid=0 / b_adapt=2 / b_bias=0 / direct=1 / wpredb=1 / wpredp=2 / keyint=300 / keyint_min=30 / scenecut=40 / rc_lookahead=50 / rc=abr / mbtree=1 / bitrate=1969 / ratetol=1.0 / qcomp=0.60 / qpmin=10 / qpmax=51 / qpstep=4 / ip_ratio=1.40 / aq=1:1.00
Язык : English
Default : Да
Forced : Нет
Основные цвета : BT.601 NTSC
Характеристики трансфера : BT.709
Коэффициенты матрицы : BT.601

Аудио #1
Идентификатор : 2
Формат : AC-3
Формат/Информация : Audio Coding 3
Расширение режима : CM (complete main)
Параметр Endianness формата : Big
Идентификатор кодека : A_AC3
Продолжительность : 21 м.
Вид битрейта : Постоянный
Битрейт : 192 Кбит/сек
Каналы : 2 канала
Расположение каналов : Front: L R
Частота : 48,0 КГц
Битовая глубина : 16 бит
Метод сжатия : С потерями
Размер потока : 28,9 Мбайт (10%)
Заголовок : vk.com/sergoleone
Язык : Russian
Default : Да
Forced : Нет

Аудио #2
Идентификатор : 3
Формат : AC-3
Формат/Информация : Audio Coding 3
Расширение режима : CM (complete main)
Параметр Endianness формата : Big
Идентификатор кодека : A_AC3
Продолжительность : 21 м.
Вид битрейта : Постоянный
Битрейт : 192 Кбит/сек
Каналы : 2 канала
Расположение каналов : Front: L R
Частота : 48,0 КГц
Битовая глубина : 16 бит
Метод сжатия : С потерями
Размер потока : 28,9 Мбайт (10%)
Заголовок : Original
Язык : English
Default : Нет
Forced : Нет

Меню
00:00:00.000 : :Chapter 1
00:02:27.647 : :Chapter 2
00:02:58.578 : :Chapter 3
00:09:50.089 : :Chapter 4
00:15:50.165 : :Chapter 5
00:20:31.930 : :Chapter 6
00:21:02.060 : :Chapter 7
01. Нечто, что не сможет это остановить!
02а. Наивторичнейший мульт
Скриншоты:


Время раздачи: 02.00х18.00 мск. до 5 скачавших
[NNM-Club.me]_Sam & Max - Freelance Police (DVDRip-AVC).torrent
 Торрент:   Зарегистрирован
 
Зарегистрируйтесь и скачайте торрент!
18,3 KB

Примагнититься
 Зарегистрирован:   28 Мар 2014 07:27:03
 Размер:   453 MB  (
 Рейтинг:   4,7 (Голосов: 15)
 Поблагодарили:   51
 Проверка:   Оформление проверено модератором 28 Мар 2014 08:12:44
Для желающих помочь
в поиске материала и создании релизов

Яндекс кошелёк 410018158878285
Как cкачать  ·  Как раздать  ·  Правильно оформить  ·  Поднять ратио!  
Strum
Стаж: 11 лет 9 мес.
Сообщений: 123
Ratio: 5,692
100%
Откуда: дровишки? ;)
ussr.gif
Простите, но (Обновляемая) это подразумевает что его сейчас откуда то рипят? Его кто то все еще транслирует? О_О
wgiw ®
RG Всё лучшее - детям!
Uploader 100+
 
Стаж: 6 лет 4 мес.
Сообщений: 3065
Ratio: 250,698
Раздал: 145,4 TB
Поблагодарили: 365307
100%
ussr.gif
Добавлена серия 02а. Наивторичнейший мульт
dresha48
Стаж: 8 лет 8 мес.
Сообщений: 273
Ratio: 13,127
100%
ukraine.gif
Strum писал(а): Перейти к сообщению
Простите, но (Обновляемая) это подразумевает что его сейчас откуда то рипят? Его кто то все еще транслирует? О_О

тут думаю дело в переводе - судя по трейлеру как будто игру экранизировали причем на её же движке.....я помню даже проходил её в то время
ReZonans2
Стаж: 7 лет 5 мес.
Сообщений: 42
Ratio: 23,355
23.3%
ussr.gif
Прошел уж год, а работы не ведутся. Печально, однако(
Топик был перенесен из форума Зарубежные Мультсериалы в форум Архив Мультфильмов

Причина переноса: Seeder last seen: 2015-02-20
almikl
VelikanovEm
Стаж: 4 года 11 мес.
Сообщений: 28
Ratio: 5,482
6.87%
wgiw
https://vk.com/sam_and_max тут переводят сэма и макса. Правда, только сабы, но хоть что-то, стоит залить
Показать сообщения:   
Начать новую тему   Ответить на тему    Торрент-трекер NNM-Club -> Архив торрентов -> Архив Мультфильмов Часовой пояс: GMT + 3
Страница 1 из 1