Классический форум-трекер
canvas not supported
Нас вместе: 4 079 143

Лига справедливости: Война / Justice League: War (2014) BDRip [1080p] (MVO Baibako)


 
 
RSS
Начать новую тему   Ответить на тему    Торрент-трекер NNM-Club -> Мультфильмы -> Зарубежные Мультфильмы (HD, UHD, UHD-LQ)
Автор Сообщение
WOLF 80 ®
Uploader 100+
Стаж: 10 лет 2 мес.
Сообщений: 480
Ratio: 3902,785
Раздал: 156,9 TB
Поблагодарили: 30366
100%
Откуда: Санкт-Петербург
russia.gif
Лига справедливости: Война / Justice League: War (2014) BDRip [1080p] (MVO Baibako)
Русское название: Лига справедливости: Война
Оригинальное название: Justice League: War
Год выпуска: 2014
Жанр: Фантастика, Фэнтези, Боевик, Приключения, Мультфильм
Производство: США, DC Entertainment, Warner Bros. Animation, DC Comics

Перевод: Профессиональный многоголосый закадровый - BaibaKo
Язык субтитров: Русский, Английский, Французский
Вид субтитров: Вшитые отключаемые

Дата мировой премьеры: 04 февраля 2014



Рейтинг PG-13 - Детям до 13 лет просмотр не желателен!

Режиссер: Джей Олива
Продюсер: Сэм Реджистер, Джеймс Такер
Персонажи: Шон Эстин, Зак Каллисон, Кристофер Горам, Джастин Кирк, Мишель Монахэн, Шемар Мур, Джейсон О’Мара, Алан Тьюдик, Стивен Блум, Ди Брэдли Бейкер

Описание фильма: Мультфильм повествует о начале возникновения Лиги справедливости. В Готэм-сити загадочным образом исчезают люди, в этом винят Бэтмена. Люди считают, что он похищает людей и пьет их кровь. Зеленый Фонарь, дабы покарать виновника похищения, направляется в Готем и встречает там Бэтмена, но под личиной летучей мыши оказывается инопланетный высокотехнологичный робот. Фонарь и настоящий Бэтмен объединяются для борьбы с роботом, который заложил какой-то предмет в канализации города. Как выясняется позже эти штуки есть ничто иное как кротовые норы (порталы для перемещения между измерениями) для вторжения
Код: выделить все
Общее
Уникальный идентификатор                 : 220881465743341112013625304305139477022 (0xA62C391034937FD786B92399CB706A1E)
Полное имя                               : D:\UPLOADED\Лига справедливости - Война(Justice League - War)(2014)[1080p] BDRip.mkv
Формат                                   : Matroska
Версия формата                           : Version 4 / Version 2
Размер файла                             : 4,20 Гбайт
Продолжительность                        : 1 ч. 19 м.
Общий поток                              : 7573 Кбит/сек
Название фильма                          : Лига справедливости: Война / Justice League:War (2014)[1080p] BDRip
Дата кодирования                         : UTC 2014-02-17 17:25:12
Программа кодирования                    : mkvmerge v6.3.0 ('You can't stop me!') built on Jul 19 2013 16:27:38
Библиотека кодирования                   : libebml v1.3.0 + libmatroska v1.4.1

Видео
Идентификатор                            : 1
Формат                                   : AVC
Формат/Информация                        : Advanced Video Codec
Профиль формата                          : High@L4.1
Параметр CABAC формата                   : Да
Параметр ReFrames формата                : 4 кадра
Идентификатор кодека                     : V_MPEG4/ISO/AVC
Продолжительность                        : 1 ч. 19 м.
Битрейт                                  : 5529 Кбит/сек
Ширина                                   : 1920 пикселей
Высота                                   : 1080 пикселей
Соотношение сторон                       : 16:9
Режим частоты кадров                     : Постоянный
Частота кадров                           : 23,976 кадра/сек
Цветовое пространство                    : YUV
Субдискретизация насыщенности            : 4:2:0
Битовая глубина                          : 8 бит
Тип развёртки                            : Прогрессивная
Бит/(Пиксели*Кадры)                      : 0.111
Размер потока                            : 3,07 Гбайт (73%)
Заголовок                                : Лига справедливости: Война / Justice League:War (2014)[1080p] BDRip
Язык                                     : English
Default                                  : Да
Forced                                   : Нет

Аудио #1
Идентификатор                            : 2
Формат                                   : AC-3
Формат/Информация                        : Audio Coding 3
Расширение режима                        : CM (complete main)
Параметр Endianness формата              : Big
Идентификатор кодека                     : A_AC3
Продолжительность                        : 1 ч. 19 м.
Вид битрейта                             : Постоянный
Битрейт                                  : 384 Кбит/сек
Каналы                                   : 6 каналов
Расположение каналов                     : Front: L C R, Side: L R, LFE
Частота                                  : 48,0 КГц
Битовая глубина                          : 16 бит
Метод сжатия                             : С потерями
Размер потока                            : 218 Мбайт (5%)
Заголовок                                : Rus BaibaKo.tv DD5.1
Язык                                     : Russian
Default                                  : Да
Forced                                   : Да

Аудио #2
Идентификатор                            : 3
Формат                                   : DTS
Формат/Информация                        : Digital Theater Systems
Режим                                    : 16
Параметр Endianness формата              : Big
Идентификатор кодека                     : A_DTS
Продолжительность                        : 1 ч. 19 м.
Вид битрейта                             : Постоянный
Битрейт                                  : 1509 Кбит/сек
Каналы                                   : 6 каналов
Расположение каналов                     : Front: L C R, Side: L R, LFE
Частота                                  : 48,0 КГц
Битовая глубина                          : 24 бит
Метод сжатия                             : С потерями
Размер потока                            : 857 Мбайт (20%)
Заголовок                                : Original
Язык                                     : English
Default                                  : Нет
Forced                                   : Нет

Текст #1
Идентификатор                            : 4
Формат                                   : UTF-8
Идентификатор кодека                     : S_TEXT/UTF8
Идентификатор кодека/Информация          : UTF-8 Plain Text
Заголовок                                : Full
Язык                                     : Russian
Default                                  : Нет
Forced                                   : Нет

Текст #2
Идентификатор                            : 5
Формат                                   : UTF-8
Идентификатор кодека                     : S_TEXT/UTF8
Идентификатор кодека/Информация          : UTF-8 Plain Text
Заголовок                                : Full
Язык                                     : English
Default                                  : Нет
Forced                                   : Нет

Текст #3
Идентификатор                            : 6
Формат                                   : UTF-8
Идентификатор кодека                     : S_TEXT/UTF8
Идентификатор кодека/Информация          : UTF-8 Plain Text
Заголовок                                : Full
Язык                                     : French
Default                                  : Нет
Forced                                   : Нет

Меню
00:00:00.000                             : en:00:00:00.000
00:10:19.786                             : en:00:10:19.786
00:20:15.381                             : en:00:20:15.381
00:30:59.191                             : en:00:30:59.191
00:39:38.293                             : en:00:39:38.293
00:50:33.739                             : en:00:50:33.739
00:59:21.391                             : en:00:59:21.391
01:11:15.062                             : en:01:11:15.062
01:15:49.503                             : en:01:15:49.503
> Фильм основан на комиксах DC «New 52 Justice League: Origin».
> Хотя Киборг был известен ранее как один из основателей «Юных титанов», в комиксах «New 52» он был основателем «Лиги справедливости», заменив Марсианского охотника, который был седьмым основателем в предыдущей истории основания «Лиги справедливости».
> В фильме Аквамен заменен на Шазама. Хотя по комиксам именно Аквамен является одним из основателей.
> Костюм Чудо-женщины был немного изменен для фильма специально, чтобы он не выглядел столь откровенным.
Продолжительность: 01:19:24
Качество видео: BDRip 1080p
Формат: MKV
Видео: 1920x1080 (16:9), 23,976 fps, h.264, ~ 5500 Kbps avg
Аудиокодек: AC3
аудио 1: AC-3 at 384 Kbps 6 channels, 48.0 KHz, Профессиональный многоголосый закадровый - BaibaKo
аудио 2: DTS at ~1510 Kbps 6 channels, 48.0 KHz, оригинальная дорожка
Все релизы " Лига справедливости "

Скриншоты:

Время Раздачи: 24/7 - круглосуточно до 5 скачавших
[NNM-Club.me]_Justice League - War(2014)[1080p] BDRip.mkv.torrent
 Торрент: Платиновая раздача  Зарегистрирован
 
Скачать


Примагнититься
 Зарегистрирован:   17 Фев 2014 21:27:31
 Размер:   4,2 GB  (
 Рейтинг:   4,7 (Голосов: 55)
 Поблагодарили:   187
 Проверка:   Оформление проверено модератором 18 Фев 2014 15:41:08
Как cкачать  ·  Как раздать  ·  Правильно оформить  ·  Поднять ратио!  

_________________
На первом месте у меня семья и дети, а хобби =>Мои РЕЛИЗЫ <= в свободное от них время
Загрузка...
Slaiper
Стаж: 9 лет 1 мес.
Сообщений: 29
Ratio: 22,768
100%
belarus.gif
Уже точно BD диск есть? или тут WEB-DL всё таки?
Показать сообщения:   
Начать новую тему   Ответить на тему    Торрент-трекер NNM-Club -> Мультфильмы -> Зарубежные Мультфильмы (HD, UHD, UHD-LQ) Часовой пояс: GMT + 3
Страница 1 из 1