Классический форум-трекер
canvas not supported
Нас вместе: 4 079 479

Пепел / Popioly (1965) DVDRip


 
 
RSS
Начать новую тему   Ответить на тему    Торрент-трекер NNM-Club -> Классика кино и Старые фильмы до 90-х -> Старые Зарубежные Фильмы (HD*Rip/LQ, DVDRip, SATRip, VHSRip)
Автор Сообщение
pshichko66 ®
Стаж: 9 лет 8 мес.
Сообщений: 206
Ratio: 29,201
Поблагодарили: 10932
100%
russia.gif
Пепел / Popioly (1965) DVDRip
Год выпуска: 1965
Производство: Польша
Жанр: Драма, Военный
Перевод: Многоголосый закадровый

Режиссер: Анджей Вайда
Актеры: Даниэль Ольбрыхский, Богуслав Керц, Петр Высоцкий, Беата Тышкевич, Пола Ракса, Владислав Ханьча, Ян Свидерский, Ян Кёхер, Збигнев Саван, Юзеф Дурьяш

Описание фильма:
К концу 18 века, Польское государство оказывается под властью сразу трех стран — России, Австрии и Пруссии. Последняя надежда свободолюбивых поляков — французская армия, под чьи знамена добровольно встают герои фильма.
Однако участие в наполеоновских походах приводит не к долгожданной независимости и объединению Польши, а к позорному созданию вассального Варшавского герцогства. Судьбы героев исторической драмы так же трагичны, как и судьба, их родины.



Дата мировой премьеры: 25 сентября 1965
Дата выхода DVD релиза: 20 февраля 2012

Продолжительность: 03:45:59
Качество видео: DVDRip

Видеокодек: XviD [смена FourCC с XviD на DivX]
Битрейт видео: ~1 194 Kbps
Размер кадра: 712х392
Аудиокодек: AC3 1.0
Битрейт аудио: 128 Kbps
General
Complete name : L:\Pshichko66\Na zapis'\Pepel.avi
Format : AVI
Format/Info : Audio Video Interleave
Format profile : OpenDML
File size : 2.11 GiB
Duration : 3h 45mn
Overall bit rate : 1 334 Kbps
Writing application : VirtualDubMod 1.5.10.2 (build 2540/release)
Writing library : VirtualDubMod build 2540/release

Video
ID : 0
Format : MPEG-4 Visual
Format profile : Advanced Simple@L5
Format settings, BVOP : 2
Format settings, QPel : No
Format settings, GMC : No warppoints
Format settings, Matrix : Default (MPEG)
Muxing mode : Packed bitstream
Codec ID : DX50
Codec ID/Hint : DivX 5
Duration : 3h 45mn
Bit rate : 1 194 Kbps
Width : 712 pixels
Height : 392 pixels
Display aspect ratio : 16:9
Frame rate : 25.000 fps
Color space : YUV
Chroma subsampling : 4:2:0
Bit depth : 8 bits
Scan type : Progressive
Compression mode : Lossy
Bits/(Pixel*Frame) : 0.171
Stream size : 1.88 GiB (89%)
Writing library : XviD 64

Audio
ID : 1
Format : AC-3
Format/Info : Audio Coding 3
Mode extension : CM (complete main)
Format settings, Endianness : Big
Codec ID : 2000
Duration : 3h 45mn
Bit rate mode : Constant
Bit rate : 128 Kbps
Channel count : 1 channel
Channel positions : Front: C
Sampling rate : 48.0 KHz
Bit depth : 16 bits
Compression mode : Lossy
Stream size : 207 MiB (10%)
Alignment : Split accross interleaves
Interleave, duration : 40 ms (1.00 video frame)
Interleave, preload duration : 500 ms
Скриншоты:
Печально-прекрасная и величественная историческая эпопея — одно из крупнейших кинополотен великого польского режиссера.

Снятая по одному из самых популярных произведений другого польского классика — Стефана Жеромского — картина Вайды рассказывает о судьбе трех молодых шляхтичей на фоне великих потрясений начала 19 века, ставших разменной монетой в бесконечных наполеоновских войнах и превратившихся в пепел истории.

Купившись на красивые сказки великого авантюриста, обещавшего полякам свободу и независимость, наивные и прекраснодушные герои фильма, испытают на собственной шкуре все ужасы войны: будут замерзать и гибнуть в заснеженной России, расстреливать безоружных негров в Санто-Доминго и испанских повстанцев в Сарагосе… Ничего не добившись в итоге, кроме разрушения всех идеалов и краха последних иллюзий и надежд.
КиноПоиск
Война в изображении Вайды — это, прежде всего, кровавое безумие, лишенное какой-либо логики и какого-либо смысла. Сцены жестокого подавления освободительного восстания в Испании, снятые почти в сюрреалистическом ключе, по своей визуальной мощи сравнимы только с гениальными офортами Франсиско Гойи «Бедствия войны».

Черно-белый «Пепел» ни в коем случае нельзя отнести к так называемым «костюмным фильмам», в которых зачастую внешние атрибуты заслоняют или убивают содержание. Нет, картина Вайды — это, прежде всего, скорбное размышление о трагизме человеческой жизни и трагизме истории.
Время раздачи: С 8 часов до 24 часов. До первых 10 скачавших
[NNM-Club.me]_Pepel.avi.torrent
 Торрент: Платиновая раздача  Зарегистрирован
 
Скачать


Примагнититься
 Зарегистрирован:   24 Фев 2014 15:26:09
 Размер:   2,11 GB  (
 Рейтинг:   4,7 (Голосов: 29)
 Поблагодарили:   106
 Проверка:   Оформление проверено модератором 25 Фев 2014 11:47:50
Как cкачать  ·  Как раздать  ·  Правильно оформить  ·  Поднять ратио!  
Топик был перенесен из форума Авторское кино в форум Старые Зарубежные Фильмы (HD*Rip/LQ, DVDRip, SATRip, VHSRip)



Исправил релиз - напиши ЛС MAG3131, дав ссылку на релиз.
Если нет ответа 24 часа - нажми на кнопку "Обратить внимание модераторов".
Показать сообщения:   
Начать новую тему   Ответить на тему    Торрент-трекер NNM-Club -> Классика кино и Старые фильмы до 90-х -> Старые Зарубежные Фильмы (HD*Rip/LQ, DVDRip, SATRip, VHSRip) Часовой пояс: GMT + 3
Страница 1 из 1