Классический форум-трекер
canvas not supported
Нас вместе: 4 095 030

Дневники вампира / The Vampire Diaries (2014) WEB-DLRip [Сезон 5, серия 14] [LostFilm]


 
 
RSS
Начать новую тему   Ответить на тему    Торрент-трекер NNM-Club -> Архив торрентов -> Архив Сериалов, а также Архив Старого многосерийного кино до 90-х
Автор Сообщение
_salazar_ ®
Стаж: 6 лет 10 мес.
Сообщений: 468
Ratio: 52,026
Поблагодарили: 7072
100%
Откуда: Royal Hell
pirates.png
Дневники вампира / The Vampire Diaries (2014) WEB-DLRip [Сезон 5, серия 14] [LostFilm]
Год выпуска: 2014
Жанр: Драма, Мелодрама, Ужасы

Перевод: Многоголосый закадровый, профессиональный (LostFilm)



Режиссер: Маркос Сига, Роб Харди, Дэвид Фон Энкен, Дж. Миллер Тобин, Джон Беринг, Джошуа Батлер, Джон Дал, Лиз Фридлендер, Крис Грисмер, Венди Станцлер, Кевин Брэй
Актеры: Нина Добрев, Пол Уэсли, Йен Сомерхалдер, Стивен Р. МакКуин, Катерина Грэхэм, Кэндис Аккола, Зак Рериг, Майкл Тревино, Джозеф Морган, Сара Каннинг, Кайла Юэлл, Дэвид Андерс, Клер Холт, Тейлор Кинни, Келли Ху, Роберт Пралго, Брайтон МакКлур, Михаэлла МакМанус, Джэсмин Гай, Рэнди Дж. Гудвин, Миа Киршнер, Лорен Коэн, Крис Дж. Джонсон, Себастьян Роше, Торри ДеВито, Бьянка Лоусон, Джек Коулмэн, Доун Оливери, Стерлинг Су

Описание фильма:
После долгого заточения в склепе, Сайлас наконец-то выбрался на волю и сможет показать свое истинное лицо. Все случившиеся в последнее время обстоятельства, заставляют героев покинуть город и податься по своему пути, но вот смогут ли они так легко отделаться от замыслов судьбы. На удивление многих зрителей, одна из любимых героинь Кетрин предстанет перед нами в новом обличии, ей придется отвыкнуть от мысли, что она пятисотлетний вампир - теперь она просто смертный человек. Будут ли продолжаться такие жаркие отношения между Деймоном и Еленой в новом сезоне, какие новые шокирующие тайны хранит семья Сальваторе-об этом и многом другом в новом 5 сезоне.

Качество видео: WEB-DLRip
Продолжительность: ~00:42:40 серия
Видеокодек: Xvid
Битрейт видео: 984 Кбит/сек
Размер кадра: 720x400
Аудиокодек: 48 kHz, MPEG Layer 3, 2 ch, 192 Kbps
Битрейт аудио: 192 Кбит/сек
Общее
Полное имя : C:\Users\Администратор\Desktop\The.Vampire.Diaries.S05E14.rus.LostFilm.TV.avi
Формат : AVI
Формат/Информация : Audio Video Interleave
Размер файла : 362 Мбайт
Продолжительность : 42 м.
Режим общего битрейта : Переменный
Общий поток : 1184 Кбит/сек
Программа кодирования : Nandub v1.0rc2
Библиотека кодирования : Nandub build 1853/release

Видео
Идентификатор : 0
Формат : MPEG-4 Visual
Профиль формата : Simple@L3
Параметр BVOP формата : Нет
Параметр QPel формата : Нет
Параметр GMC формата : Без точки перехода
Параметр матрицы формата : Default (H.263)
Идентификатор кодека : XVID
Идентификатор кодека/Подсказка : XviD
Продолжительность : 42 м.
Битрейт : 984 Кбит/сек
Ширина : 720 пикселей
Высота : 400 пикселей
Соотношение сторон : 16:9
Частота кадров : 23,976 кадра/сек
Цветовое пространство : YUV
Субдискретизация насыщенности : 4:2:0
Битовая глубина : 8 бит
Тип развёртки : Прогрессивная
Метод сжатия : С потерями
Бит/(Пиксели*Кадры) : 0.143
Размер потока : 300 Мбайт (83%)
Библиотека кодирования : XviD 1.2.1 (UTC 2008-12-04)

Аудио
Идентификатор : 1
Формат : MPEG Audio
Версия формата : Version 1
Профиль формата : Layer 3
Режим : Joint stereo
Идентификатор кодека : 55
Идентификатор кодека/Подсказка : MP3
Продолжительность : 42 м.
Вид битрейта : Переменный
Битрейт : 192 Кбит/сек
Каналы : 2 канала
Частота : 48,0 КГц
Метод сжатия : С потерями
Размер потока : 57,3 Мбайт (16%)
Выравнивание : Соединение по промежуткам
Продолжительность промежутка : 24 мс. (0,58 видеокадр)
Время предзагрузки промежутка : 480 мс.
Библиотека кодирования : LAME3.97b
Настройки программы : -m j -V 4 -q 3 -lowpass 18.6 --abr 192
Скриншоты:


Время раздачи: круглосуточно
[NNM-Club.me]_The.Vampire.Diaries.S05E14.rus.LostFilm.TV.avi.torrent
 Торрент: Платиновая раздача  Зарегистрирован
 
Скачать


Примагнититься
 Зарегистрирован:   02 Мар 2014 15:26:38
 Размер:   362 MB  (
 Рейтинг:   4,6 (Голосов: 20)
 Поблагодарили:   44
 Проверка:   Оформление проверено модератором 02 Мар 2014 21:41:46
Как cкачать  ·  Как раздать  ·  Правильно оформить  ·  Поднять ратио!  
Дмитрий Валерьевич
Uploader 100+
Стаж: 10 лет 2 мес.
Сообщений: 6829
Ratio: 14K
Раздал: 276 TB
Поблагодарили: 326875
100%
Откуда: Есть такой город – Глазов
russia.gif
Раздача временная, до обновления Дневники вампира / The Vampire Diaries (2013) WEB-DLRip [сезон 5, серии 1-12 из 22] [LostFilm](Обновляемая)
Топик был перенесен из форума Дневники вампира / Настоящая кровь в форум Архив Сериалов

Причина переноса: раздающего не было месяц или более.
DriverV
Показать сообщения:   
Начать новую тему   Ответить на тему    Торрент-трекер NNM-Club -> Архив торрентов -> Архив Сериалов, а также Архив Старого многосерийного кино до 90-х Часовой пояс: GMT + 3
Страница 1 из 1