Классический форум-трекер
canvas not supported
Нас вместе: 4 118 534

Паралимпийские игры 2014. Церемония открытия (2014.03.07) SATRip [Спорт 1]


 
 
RSS
Начать новую тему   Ответить на тему    Торрент-трекер NNM-Club -> Архив торрентов -> Архив Документалистики и TV
Автор Сообщение
svlesin ®
Модератор Документалистики/TV
RG Releasers
Релизер 25000+ Uploader 300+
 
Стаж: 10 лет 7 мес.
Сообщений: 33817
Ratio: 1853,493
Поблагодарили: 3255421
100%
russia.gif
Паралимпийские игры 2014. Церемония открытия (2014.03.07) SATRip [Спорт 1]
Режиссер / Телекомпания: СПОРТ 1

Русское название: Паралимпийские игры 2014. Церемония открытия
Год выпуска: 2014
Жанр: Спорт
Выпущено: Россия

Описание:
Грандиозное шоу, которое даст старт этому десятидневному спортивному празднику, начнётся сегодня вечером на стадионе "Фишт". Там же - завершится эстафета Паралимпийского огня, которая уже второй день проходит непосредственно на территории столицы Игр. В эти минуты "перо Жар-птицы" как раз путешествует по центру Сочи. Именно этот отрезок пути - самый протяжённый. Маршрут пролегает и в горах - по спортивным объектам, и по центральным улицам, и у моря. Факел пронесут 150 человек. Те, кто уже завершил свой личный этап эстафеты, говорят, что это очень волнительный момент и большая ответственность. "В этом году Паралимпиада будет на высочайшем уровне. Ожидается самая большая в истории в истории Паралимпийского движения телевизионная аудитория. Я думаю, что Сочи, получив неоценимый опыт проведения одной из самых лучших Олимпиад в истории, достойно встретит Паралимпиаду, переведёт Паралимпийское движение на следующий высокий уровень", – говорит генеральный продюсер церемонии открытия Паралимпийских игр 2014 года в Сочи Константин Эрнст.

Ведущие: Ольга Богословская и Тарас Тимошенко

Продолжительность: 02:04:11

Видеокодек: XviD
Качество видео: SATRip
Битрейт видео: ~1794 Кбит/сек
Размер кадра: 720 x 400
Аудиокодек: MP3, 2.0ch.
Битрейт аудио: 128 kb/s
Формат : AVI
Формат/Информация : Audio Video Interleave
Размер файла : 1,68 Гбайт
Продолжительность : 2 ч. 4 м.
Общий поток : 1932 Кбит/сек
Программа кодирования : VirtualDubMod 1.5.10.2 (build 2540/release)
Библиотека кодирования : VirtualDubMod build 2540/release

Видео
Идентификатор : 0
Формат : MPEG-4 Visual
Профиль формата : Advanced Simple@L5
Параметр BVOP формата : 2
Параметр QPel формата : Нет
Параметр GMC формата : Без точки перехода
Параметр матрицы формата : Default (H.263)
Идентификатор кодека : XVID
Идентификатор кодека/Подсказка : XviD
Продолжительность : 2 ч. 4 м.
Битрейт : 1794 Кбит/сек
Ширина : 720 пикселей
Высота : 400 пикселей
Соотношение сторон : 16:9
Частота кадров : 25,000 кадров/сек
Цветовое пространство : YUV
Субдискретизация насыщенности : 4:2:0
Битовая глубина : 8 бит
Тип развёртки : Прогрессивная
Метод сжатия : С потерями
Бит/(Пиксели*Кадры) : 0.249
Размер потока : 1,56 Гбайт (93%)
Библиотека кодирования : XviD 64

Аудио
Идентификатор : 1
Формат : MPEG Audio
Версия формата : Version 1
Профиль формата : Layer 3
Режим : Joint stereo
Расширение режима : MS Stereo
Идентификатор кодека : 55
Идентификатор кодека/Подсказка : MP3
Продолжительность : 2 ч. 4 м.
Вид битрейта : Постоянный
Битрейт : 128 Кбит/сек
Каналы : 2 канала
Частота : 48,0 КГц
Метод сжатия : С потерями
Размер потока : 114 Мбайт (7%)
Выравнивание : Соединение по промежуткам
Продолжительность промежутка : 40 мс. (1,00 видеокадр)
Время предзагрузки промежутка : 504 мс.
Библиотека кодирования : LAME3.100 Є
Скриншоты:

Время раздачи: 24/7. До первых 5 скачавших.
ХI Зимние Паралимпийские игры на NoNaMe Club
[NNM-Club.me]_Paralimpiyskie igryi 2014. TSeremoniya otkryitiya (2014.03.07)_SATRip_Sport 1.avi.torrent
 Торрент: Золотая раздача  Зарегистрирован
 
Зарегистрируйтесь и скачайте торрент!
17,1 KB

Примагнититься
 Зарегистрирован:   08 Мар 2014 00:24:55
 Размер:   1,68 GB  (
 Рейтинг:   3,7 (Голосов: 25)
 Поблагодарили:   97
 Проверка:   Оформление проверено модератором 08 Мар 2014 00:27:11
Как cкачать  ·  Как раздать  ·  Правильно оформить  ·  Поднять ратио!  

_________________
Уважаемые пользователи Клуба! От меня релизов больше не будет. Может быть, буду поддерживать «Обновляемые раздачи». Спасибо всем, кто благодарил меня и говорил/нажимал «Спасибо»!
cccp39
Стаж: 8 лет 9 мес.
Сообщений: 672
Ratio: 493,532
100%
russia.gif
Спасибо за раздачу
Maksimofff
Стаж: 10 лет 3 мес.
Сообщений: 2001
Ratio: 16,918
Поблагодарили: 95
100%
Наши паралимпийцы вышли под песню Гудбай, Америка? Надо посмотреть.
Топик был перенесен из форума ХI Зимние Паралимпийские игры. Сочи 2014 в форум Архив Документалистики и TV

Причина переноса: Отсутствие сида более месяца

Исправил релиз - напиши ЛС Microsoft SQL, дав ссылку на релиз.
Если нет ответа 24 часа - нажми на кнопку "Обратить внимание модераторов".
Показать сообщения:   
Начать новую тему   Ответить на тему    Торрент-трекер NNM-Club -> Архив торрентов -> Архив Документалистики и TV Часовой пояс: GMT + 3
Страница 1 из 1