Классический форум-трекер
canvas not supported
Нас вместе: 4 076 577

Истории папы Кролика / La Famille Passiflore (2001-2008) (52 серии из 52) SATRip


 
 
RSS
Начать новую тему   Ответить на тему    Торрент-трекер NNM-Club -> Мультфильмы -> Зарубежные Мультфильмы для детей
Автор Сообщение
dshuv ®
Uploader 300+
Стаж: 9 лет 5 мес.
Сообщений: 43
Ratio: 3103,454
Поблагодарили: 251
100%
Откуда: родом из детства
ussr.gif
Истории папы Кролика / La Famille Passiflore (2001-2008) SATRip
Год выпуска: 2001-2008
Жанр: Рисованная анимация, Детский, Комедия

Перевод: Многоголосый закадровый, профессиональный
Язык: Русский
Вид субтитров: Отсутствуют

Дата мировой премьеры: 25.12.2001

Режиссер: Эрик Бертье, Moran Caouissin
Персонажи: Четыре брата, сестричка, папа по имени Тимьян и тётя Азалия.

Описание фильма:
Папа Кролик — отец пятерых шаловливых крольчат. Пушистое семейство живет в уютном доме, устроенном в стволе огромного бука. Четыре брата, сестричка, папа по имени Тимьян и тётя Азалия живут дружно и помогают друг другу во всем: вместе они ведут хозяйство, устраивают переезд, готовятся к карнавалу, совершают захватывающее путешествие на воздушном шаре, встречают зиму и радуются первому снегу. В каждой серии семейство собирается в гостиной у камина, смотрит фотографии и слушает истории папы Кролика, навеянные этими снимками. Пушистые герои так симпатичны, шустры и шаловливы, что каждый новый эпизод с их участием вызовет у маленьких зрителей восхищение. Мультсериал прививает детям уважение к семейным ценностям, любовь к близким, учит заботиться о младших и помогать взрослым. «Истории папы кролика» — образец семейного счастья, согласия и благополучия.



Продолжительность: 52 х ~ 00:26:35
Качество видео: SATRip

Видеокодек: Xvid
Битрейт видео: ~1324kbps
Размер кадра: 640x480
Аудиокодек: MP3, 2ch
Битрейт аудио: 48000Hz 128kbps
1. Полёт на воздушном шаре
2. Чем мальчики лучше девочек
3. Подвиг тёти Азалии
4. Сад Лютика
5. Расследование непоседы
6. Подгоревшие пирожки
7. Великан Казоар
8. Новый друг Лютика
9. Оркестр
10. Ключ к счастью
11. История для газеты
12. Звезда цирка
13. Академия молодых учёных
14. Высохший источник
15. Папин секрет
16. Самая лучшая няня.
17. Подарки лесного кролика
18. Послание для птенчика
19. Сокровища лесного озера
20. Каникулы шустрика
21. Театр фокусов
22. Чудесные овощи
23. Волшебный аромат
24. Цапля счастья
25. Морское приключение
26. Бесстрашная Непоседа
27. Скрипка Базилика
28. Путешествие в снежную страну
29. Лесной ураган
30. Наводнение
31. Маленькие изобретатели
32. Волшебные доспехи
33. Новое платье Непоседы
34. Рецепты тети Азалии
35. Раскопки Базилика
36. Самый лучший кролик
37. Непоседа и Ромэо
38. Любимая игрушка
39. Прекрасная колдунья
40. Лунный камень
41. Веселая карусель
42. Переезд
43. Карнавал
44. Подарок для дедушки
45. Папино изобретение
46. Первый бал Рыжика
47. Тайны старого маяка
48. Лучший фильм Лютика
49. Рыжик и волшебник
50. Незваные гости
51. Зимние каникулы
52. Дар лесной феи
Формат : AVI
Формат/Информация : Audio Video Interleave
Размер файла : 279 Мбайт
Продолжительность : 26 м.
Общий поток : 1466 Кбит/сек

Видео
Идентификатор : 0
Формат : MPEG-4 Visual
Профиль формата : Advanced Simple@L5
Параметр BVOP формата : 2
Параметр QPel формата : Нет
Параметр GMC формата : Без точки перехода
Параметр матрицы формата : Default (H.263)
Идентификатор кодека : XVID
Идентификатор кодека/Подсказка : XviD
Продолжительность : 26 м.
Битрейт : 1325 Кбит/сек
Ширина : 640 пикселей
Высота : 480 пикселей
Соотношение сторон : 4:3
Частота кадров : 25,000 кадров/сек
Цветовое пространство : YUV
Субдискретизация насыщенности : 4:2:0
Битовая глубина : 8 бит
Тип развёртки : Прогрессивная
Метод сжатия : С потерями
Бит/(Пиксели*Кадры) : 0.173
Размер потока : 252 Мбайт (90%)
Библиотека кодирования : XviD 1.2.1 (UTC 2008-12-04)

Аудио
Идентификатор : 1
Формат : MPEG Audio
Версия формата : Version 1
Профиль формата : Layer 3
Идентификатор кодека : 55
Идентификатор кодека/Подсказка : MP3
Продолжительность : 26 м.
Продолжительность оригинала : 26 м.
Вид битрейта : Постоянный
Битрейт : 128 Кбит/сек
Каналы : 2 канала
Частота : 48,0 КГц
Метод сжатия : С потерями
Размер потока : 24,3 Мбайт (9%)
Выравнивание : Разделение по промежуткам
Продолжительность промежутка : 24 мс. (0,60 видеокадр)
Скриншоты:


Время раздачи: Пн-Пт с 18:00 до 23:00, Сб-Вс с 10:00 до 23:00
[NNM-Club.me]_Istorii papyi Krolika.torrent
 Торрент: Платиновая раздача  Зарегистрирован
 
Скачать


Примагнититься
 Зарегистрирован:   10 Мар 2014 19:59:34
 Размер:   12,3 GB  (
 Рейтинг:   4,8 (Голосов: 58)
 Поблагодарили:   251
 Проверка:   Оформление проверено модератором 10 Мар 2014 21:49:28
Как cкачать  ·  Как раздать  ·  Правильно оформить  ·  Поднять ратио!  
dshuv ®
Uploader 300+
Стаж: 9 лет 5 мес.
Сообщений: 43
Ratio: 3103,454
Поблагодарили: 251
100%
Откуда: родом из детства
ussr.gif
Извините, но в 23:00 вынужден буду потушить комп, продолжу раздачу завтра....Нюансы...

_________________
...Оптимист даже на кладбище видит сплошные плюсы...
shikitawa
Стаж: 6 лет 9 мес.
Сообщений: 107
Ratio: 6,254
100%
Это :клево:
Спасибо.
dshuv ®
Uploader 300+
Стаж: 9 лет 5 мес.
Сообщений: 43
Ratio: 3103,454
Поблагодарили: 251
100%
Откуда: родом из детства
ussr.gif
P.S. Спасибо за помощь в оформлении, starklad. Первый блин благодаря Вам вышел не комом :D

_________________
...Оптимист даже на кладбище видит сплошные плюсы...
starklad
RG Всё лучшее - детям!
Реставратор Детского, Uploader 100+
 
Стаж: 7 лет 8 мес.
Сообщений: 7917
Ratio: 12K
Поблагодарили: 198395
100%
Откуда: родом из СССР
ussr.gif
dshuv
Пожалуйста! :да:
denver7979
Зам. Куратора Детского.
Модератор Видео.
RG Всё лучшее - детям!
 
Стаж: 8 лет 8 мес.
Сообщений: 7556
Ratio: 489,064
Раздал: 33,76 TB
Поблагодарили: 308122
100%
Откуда: Земля
ussr.gif
starklad
dshuv
Спасибо за совместную работу и продуктивное сотрудничество! Замечательный релиз! :приветствую:

_________________
§ Основной FAQ & Все ПравилаНабор в RG NNM-Club Всё для детей, пап и мам
* Все вопросы в ☛ ЛС по вашим релизам ☣
обязательно со ссылками на темы, о которых идёт речь ☺
BAJIAP
Стаж: 6 лет 5 мес.
Сообщений: 148
Ratio: 22,46
Раздал: 3,919 TB
Поблагодарили: 6166
100%
Откуда: Ялта
russia.gif
Отличный добрый мульт для дочки! Спс автору.
Показать сообщения:   
Начать новую тему   Ответить на тему    Торрент-трекер NNM-Club -> Мультфильмы -> Зарубежные Мультфильмы для детей Часовой пояс: GMT + 3
Страница 1 из 1