Классический форум-трекер
canvas not supported
Нас вместе: 4 102 412

Класс / Klass (2007) BDRemux [1080i]


 
 
RSS
Начать новую тему   Ответить на тему    Торрент-трекер NNM-Club -> Зарубежное кино -> Фильмы ближнего зарубежья
Автор Сообщение
roman199714 ®
Стаж: 6 лет 10 мес.
Сообщений: 13
Ratio: 26,918
Раздал: 6,215 TB
Поблагодарили: 1376
91.72%
ukraine.gif
Класс / Klass (2007) BDRemux [1080i]
Год выпуска: 2007
Cтрана: Эстония
Жанр: Драма

Описание фильма:
Обычная эстонская школа, выпускной класс. Парень по имени Йозеп постоянно терпит насмешки и издевательства со стороны одноклассников. Никогда не отвечая на выпады, он провоцирует их заходить в глупых «шутках» все дальше и дальше, до тех пор, пока за него не заступился один из бывших насмешников — Каспар. В классе начинается противостояние, которое постепенно накаляется, приближая неминуемую развязку…

Режиссер: Ильмар Рааг
Актеры: Валло Кирс, Пярт Уусберг, Лаури Педайя, Паула Солвак, Микк Мяги, Риина Риес, Йонас Паас, Кади Метсла, Трийн Тенсо, Вирго Эрнитс

Продолжительность: 01:37:35
Качество видео: BDRemux 1080i
Перевод: Профессиональный (многоголосый, закадровый)
Язык субтитров: Русский, Эстонский, Английский
Вид субтитров: Вшитые



Дата мировой премьеры: 16 марта 2007
Дата российской премьеры: 1 апреля 2010, «Кармен Фильм»

Контейнер: MKV
Видеокодек: MPEG-4 AVC/H.264
Битрейт видео: ~19764 kb/s
Размер кадра: 1920х1080
Аудио 1: Русский AC3 / 2.0 / 48 kHz / 192 kbps / 16 bits - Многоголосый закадровый
Аудио 2: Эстонский AC3 / 5.1 / 48 kHz / 640 kbps / 16 bits - Оригинал
Общее
Уникальный идентификатор : 219411790835448495621944772598435578043 (0xA5112C7EF42F1207941C0834B03A80BB)
Полное имя : D:\mOvIe\Klass.2007.BDRemux.1080i.mkv
Формат : Matroska
Версия формата : Version 4 / Version 2
Размер файла : 14,2 Гбайт
Продолжительность : 1 ч. 37 м.
Режим общего битрейта : Переменный
Общий поток : 20,8 Мбит/сек
Дата кодирования : UTC 2014-03-12 16:39:46
Программа кодирования : mkvmerge v6.6.0 ('The Edge Of The In Between') built on Dec 1 2013 17:55:00
Библиотека кодирования : libebml v1.3.0 + libmatroska v1.4.1
Attachment : Yes

Видео
Идентификатор : 1
Формат : AVC
Формат/Информация : Advanced Video Codec
Профиль формата : High@L4.1
Параметр CABAC формата : Да
Параметр ReFrames формата : 4 кадра
Параметр GOP формата : M=3, N=24
Идентификатор кодека : V_MPEG4/ISO/AVC
Продолжительность : 1 ч. 37 м.
Вид битрейта : Переменный
Битрейт : 19,6 Мбит/сек
Максимальный битрейт : 36,0 Мбит/сек
Ширина : 1920 пикселей
Высота : 1080 пикселей
Соотношение сторон : 16:9
Режим частоты кадров : Постоянный
Частота кадров : 25,000 кадров/сек
Стандарт вещания : PAL
Цветовое пространство : YUV
Субдискретизация насыщенности : 4:2:0
Битовая глубина : 8 бит
Тип развёртки : MBAFF
Бит/(Пиксели*Кадры) : 0.378
Размер потока : 13,4 Гбайт (94%)
Default : Да
Forced : Нет
Основные цвета : BT.709
Характеристики трансфера : BT.709
Коэффициенты матрицы : BT.709

Аудио #1
Идентификатор : 2
Формат : AC-3
Формат/Информация : Audio Coding 3
Расширение режима : CM (complete main)
Параметр Endianness формата : Big
Идентификатор кодека : A_AC3
Продолжительность : 1 ч. 37 м.
Вид битрейта : Постоянный
Битрейт : 192 Кбит/сек
Каналы : 2 канала
Расположение каналов : Front: L R
Частота : 48,0 КГц
Битовая глубина : 16 бит
Метод сжатия : С потерями
Размер потока : 134 Мбайт (1%)
Заголовок : MVO, R5
Язык : Russian
Default : Да
Forced : Нет

Аудио #2
Идентификатор : 3
Формат : AC-3
Формат/Информация : Audio Coding 3
Расширение режима : CM (complete main)
Параметр Endianness формата : Big
Идентификатор кодека : A_AC3
Продолжительность : 1 ч. 37 м.
Вид битрейта : Постоянный
Битрейт : 640 Кбит/сек
Каналы : 6 каналов
Расположение каналов : Front: L C R, Side: L R, LFE
Частота : 48,0 КГц
Битовая глубина : 16 бит
Метод сжатия : С потерями
Размер потока : 447 Мбайт (3%)
Язык : Estonian
Default : Нет
Forced : Нет

Текст #1
Идентификатор : 4
Формат : UTF-8
Идентификатор кодека : S_TEXT/UTF8
Идентификатор кодека/Информация : UTF-8 Plain Text
Заголовок : R5
Язык : Russian
Default : Нет
Forced : Нет

Текст #2
Идентификатор : 5
Формат : UTF-8
Идентификатор кодека : S_TEXT/UTF8
Идентификатор кодека/Информация : UTF-8 Plain Text
Язык : Estonian
Default : Нет
Forced : Нет

Текст #3
Идентификатор : 6
Формат : UTF-8
Идентификатор кодека : S_TEXT/UTF8
Идентификатор кодека/Информация : UTF-8 Plain Text
Язык : English
Default : Нет
Forced : Нет
Скриншоты:




Время раздачи: Пн-Пт с 18:00 до 01:30, Сб-Вс с 11:00 до 02:00
»» Все релизы фильма на NNM-Club
[NNM-Club.me]_Klass.2007.BDRemux.1080i.mkv.torrent
 Торрент: Платиновая раздача  Зарегистрирован
 
Скачать


Примагнититься
 Зарегистрирован:   12 Мар 2014 21:34:10
 Размер:   14,2 GB  (
 Рейтинг:   4,7 (Голосов: 42)
 Поблагодарили:   122
 Проверка:   Оформление проверено модератором 13 Мар 2014 16:33:12
Как cкачать  ·  Как раздать  ·  Правильно оформить  ·  Поднять ратио!  
KyJIeP_D
Стаж: 8 лет 7 мес.
Сообщений: 21
Ratio: 224,61
100%
Не так давно смотрел. Сильный фильм.
bumboks

Online
Стаж: 10 лет 2 мес.
Сообщений: 72
Ratio: 1,538
100%
Откуда: С Луны
pirates.png
Да фильмец жесть
vladimigerma
Стаж: 8 лет 10 мес.
Сообщений: 1024
Ratio: 28,211
100%
russia.gif
неужели это правда
bbbbbaaa
Стаж: 9 лет 10 мес.
Сообщений: 15
Ratio: 84,428
100%
Фильм действительно очень сильный. И, к сожалению, вполне реальный
Jack Hunt
 
Стаж: 12 лет 10 мес.
Сообщений: 331
Ratio: 44,47
Раздал: 86,07 TB
100%
Откуда: Пермь
russia.gif
Смотрел давно, в качестве заберу, фильмец тяжелый, конечно. Кстати, снят по реальным событиям... Все умрут, а я останусь...
semenich2
Стаж: 9 лет 4 мес.
Сообщений: 698
Ratio: 2,919
94.32%
Вас бы так до..., доканали!!!
PORN
Стаж: 8 лет 6 мес.
Сообщений: 29
Ratio: 3,592
100%
Откуда: VLG
russia.gif
Неофициальный клип оксимирона с нарезкой из этого фильма запретили на ютубе.
Связи с трагедией в Керчи скорее всего.

Виноваты как всегда артисты и Дока 2, но ни как не правительство с её цепными псами из фсб.... рязанский сахар помним!!!!

_________________
Сдаю плазму или тромбоциты...
Показать сообщения:   
Начать новую тему   Ответить на тему    Торрент-трекер NNM-Club -> Зарубежное кино -> Фильмы ближнего зарубежья Часовой пояс: GMT + 3
Страница 1 из 1