Классический форум-трекер
canvas not supported
Нас вместе: 4 094 035

Вий (2013) HDRip


Страницы:  1, 2  След. 
 
RSS
Начать новую тему   Ответить на тему    Торрент-трекер NNM-Club -> Отечественное кино -> Отечественные Фильмы (HD*Rip/LQ, DVDRip, SATRip, VHSRip)
Автор Сообщение
MR Sergei ®
Uploaders 100+
 
Стаж: 7 лет 5 мес.
Сообщений: 3058
Ratio: 33K
Раздал: 302,4 TB
Поблагодарили: 550261
100%
Откуда: ЛНР, Краснодон
russia.gif
Вий (2013) HDRip
Год выпуска: 2013
Производство: Россия, Украина, Германия, Великобритания, Чехия
Жанр: Фэнтези, Триллер, Приключения
Перевод: Не требуется (русский)
Субтитры: Отсутствуют

Режиссер: Олег Степченко
Продюсер: Александр Куликов, Руслан Устинов, Алексей Петрухин
Актеры: Джейсон Флеминг, Алексей Чадов, Агния Дитковските, Андрей Смоляков, Игорь Жижикин, Олег Тактаров, Валерий Золотухин, Нина Русланова, Юрий Цурило, Александр Яковлев

Описание фильма:
Начало XVIII века. Картограф Джонатан Грин совершает научное путешествие из Европы на Восток. Проследовав через Трансильванию и преодолев Карпатские горы, он попадает в затерянную среди непроходимых лесов деревушку. Только воля случая и густой туман могли занести его в это проклятое место. Народ, живущий здесь, не похож ни на один доселе виданный путешественником. Эти люди, оградив себя от остального мира глубоким рвом, наивно верят, что смогут уберечься от нечисти, не понимая, что она уже давно поселилась в их душах и только ждёт случая, чтобы вырваться наружу. Даже в страшном сне учёный-материалист не предполагал, что здесь ему уготована встреча с верным слугой дьявола.



Дата мировой премьеры: 30 января 2014
Дата российской премьеры: 30 января 2014, «UPI»
Дата выхода DVD релиза: 3 марта 2014, «Новый Диск»
Дата выхода Blu-Ray релиза: 10 марта 2014, «Новый Диск»

Продолжительность: 02:10:12
Качество видео: HDRip

Видеокодек: Xvid
Битрейт видео: ~1046 Kbps
Размер кадра: 720x400
Аудиокодек: AC3, 5.1
Битрейт аудио: 448 Kbps
Сэмпл: Скачать
Общее
Полное имя : E:\Фильмы\Viy.2014.O.HDRip.1400Mb.avi
Формат : AVI
Формат/Информация : Audio Video Interleave
Размер файла : 1,37 Гбайт
Продолжительность : 2 ч. 10 м.
Общий поток : 1504 Кбит/сек
Программа кодирования : VirtualDubMod 1.5.10.2 (build 2540/release)
Библиотека кодирования : VirtualDubMod build 2540/release

Видео
Идентификатор : 0
Формат : MPEG-4 Visual
Профиль формата : Advanced Simple@L5
Параметр BVOP формата : 2
Параметр QPel формата : Нет
Параметр GMC формата : Без точки перехода
Параметр матрицы формата : Выборочная
Идентификатор кодека : XVID
Идентификатор кодека/Подсказка : XviD
Продолжительность : 2 ч. 10 м.
Битрейт : 1046 Кбит/сек
Ширина : 720 пикселей
Высота : 400 пикселей
Соотношение сторон : 16:9
Частота кадров : 23,976 кадра/сек
Цветовое пространство : YUV
Субдискретизация насыщенности : 4:2:0
Битовая глубина : 8 бит
Тип развёртки : Прогрессивная
Метод сжатия : С потерями
Бит/(Пиксели*Кадры) : 0.152
Размер потока : 974 Мбайт (70%)
Библиотека кодирования : XviD 1.2.1 (UTC 2008-12-04)

Аудио
Идентификатор : 1
Формат : AC-3
Формат/Информация : Audio Coding 3
Расширение режима : CM (complete main)
Параметр Endianness формата : Big
Идентификатор кодека : 2000
Продолжительность : 2 ч. 10 м.
Вид битрейта : Постоянный
Битрейт : 448 Кбит/сек
Каналы : 6 каналов
Расположение каналов : Front: L C R, Side: L R, LFE
Частота : 48,0 КГц
Битовая глубина : 16 бит
Метод сжатия : С потерями
Размер потока : 417 Мбайт (30%)
Выравнивание : Разделение по промежуткам
Продолжительность промежутка : 42 мс. (1,00 видеокадр)
Время предзагрузки промежутка : 500 мс.
Скриншоты:



Время раздачи: 24/7
(до 5 скачавших)

Вий на NoNaMe Club
[NNM-Club.me]_Viy.2014.O.HDRip.1400Mb.torrent
 Торрент: Платиновая раздача  Зарегистрирован
 
Скачать


Примагнититься
 Зарегистрирован:   15 Мар 2014 12:30:51
 Размер:   1,37 GB  (
 Рейтинг:   4,5 (Голосов: 165)
 Поблагодарили:   678
 Проверка:   Оформление проверено модератором 16 Мар 2014 01:58:09
Как cкачать  ·  Как раздать  ·  Правильно оформить  ·  Поднять ратио!  
andr1ev
Стаж: 7 лет 2 мес.
Сообщений: 33
Ratio: 11,122
100%
ukraine.gif
фильм отстойный
sanchez_yo
Стаж: 9 лет 10 мес.
Сообщений: 4
Ratio: 14,4
0%
russia.gif
ща заценим
tramp55
Стаж: 10 лет 1 мес.
Сообщений: 742
Ratio: 6,598
100%
Откуда: Санкт-Петербург
russia.gif
Да ладно вам. По сравнению с голливудскими ужастиками - фильм неплохой.
Egik81
Стаж: 8 лет 4 мес.
Сообщений: 36
Ratio: 101,236
0.42%
Откуда: Россия Москва
russia.gif
Если действительно это делали наши то мы пропали фильм  ..
Kirpich9110
Стаж: 9 лет 1 мес.
Сообщений: 129
Ratio: 6,158
100%
ukraine.gif
хлам
titovegor
Стаж: 9 лет 11 мес.
Сообщений: 50
Ratio: 1,971
70.6%
russia.gif
Ожидал лучшего...
На один раз. Убить время в поезде или в аэропорту годится
TsezaRR
Стаж: 7 лет 3 мес.
Сообщений: 246
Ratio: 13,444
89.33%
ussr.gif
Или качество плохое, или сам фильм Г, но меня хватило на 10 минут. Негатив с первых минут. Пора бы нашим кинематографистам понять, что такого Г мы уже насмотрелись за 20 лет "свободного кино". Учитесь снимать кино как снимали при СССР: интересно , жизненно, с позитивом, фильм заставлял жить и работать. ПРЕДУПРЕЖДАЮ оппонентов, Я СОВОК, и горжусь этим. А чем гордитесь ВЫ, "свободные" вы наши?
ИТОГ. Фильм-какашка с большой буквы Г.
Ухожу с раздачи.... :мегашок:
kastello777
Стаж: 9 лет 9 мес.
Сообщений: 41
Ratio: 35,51
100%
russia.gif
Фильм очень хороший!
lytik-56
Стаж: 10 лет 4 мес.
Сообщений: 45
Ratio: 2,736
Поблагодарили: 142
1.94%
Откуда: Gvatemala
pirates.png
фильм не очень хороший

_________________
Нет больше той любви, как если кто положит душу свою за друзей своих. (Евангелие от Иоанна 15:13.)
bubanator
Стаж: 8 лет 8 мес.
Сообщений: 34
Ratio: 9,652
100%
беда со скоростью.
niklar281
Стаж: 7 лет 8 мес.
Сообщений: 14
Ratio: 4,653
100%
russia.gif
Конечно не совсем по Гоголю, но смотрится легко и с интересом. Конечно, всем по-разному, но сожаления о потерянном времени не оставил.
Залившему спасибо!
#ramcram
Uploader 100+
Стаж: 13 лет
Сообщений: 895
Ratio: 217,119
Поблагодарили: 80
100%
ussr.gif
Редчайший шлак. К сожалению.
moxtik
Стаж: 6 лет 10 мес.
Сообщений: 10
Ratio: 1,64
0.95%
чепуха
Lativ
Стаж: 8 лет 7 мес.
Сообщений: 162
Ratio: 0,821
24.69%
Всем кто считает данным фильм "чепухой" = дурачье!!!!

Шикарная работа Режиссера и сценаристов.... молодцы!!!
Показать сообщения:   
Начать новую тему   Ответить на тему    Торрент-трекер NNM-Club -> Отечественное кино -> Отечественные Фильмы (HD*Rip/LQ, DVDRip, SATRip, VHSRip) Часовой пояс: GMT + 3
Страницы:  1, 2  След.
Страница 1 из 2