Классический форум-трекер
canvas not supported
Нас вместе: 4 093 694

Настоящий детектив / True Detective (2014) HDTV [1080i] (Сезон 1, серии 1-8 из 8) Кубик в Кубе + Amedia


 
 
RSS
Начать новую тему   Ответить на тему    Торрент-трекер NNM-Club -> Зарубежные сериалы
Автор Сообщение
seperovych ®
Стаж: 9 лет 8 мес.
Сообщений: 1501
Ratio: 55,093
Раздал: 35,58 TB
Поблагодарили: 150004
100%
Откуда: Киев
ukraine.gif
Настоящий детектив / True Detective (2014) HDTV [1080i] (Сезон 1, серии 1-8 из 8) Кубик в Кубе + Amedia
Производство: "HBO", США
Год выпуска: 2014
Жанр: Драма, Криминал

Перевод:
Профессиональный, двухголосый закадровый - Кубик в Кубе
Профессиональный, многоголосый закадровый - Amedia

Режиссер: Кэри Фукунага
Актеры: Мэттью МакКонахи, Вуди Харрельсон, Мишель Монахэн, Брюс Эллиотт, Рендал Гонсалес, Тори Киттлз, Дэвид Стивен Митчелл, Майкл Поттс, Эрик Прайс, Мэдисон Вульф

Описание фильма:
Главные герои — два детектива. В 2012 году в штате Луизиана повторно открывается дело о серийном убийстве в 1995 году. Детективы познакомились 17 лет назад, когда началось расследование, и с тех пор вместе охотились за киллером. Повествование будет вестись как в наше время, так и откатится назад, в середину девяностых.



Дата мировой премьеры: 12.01.2014
Дата российской премьеры: 13.01.2014

Продолжительность: 8 x ~ 01:00:00
Качество видео: HDTV

Видеокодек: MPEG 2
Битрейт видео: ~11.0 Mbps
Размер кадра: 1920x1080
Аудио #1: /RUS/ AC3, 5.1 ch, 384 Kbps (Кубик в Кубе)
Аудио #2: /RUS/ AC3, 5.1 ch, 384 Kbps (Amedia)
Аудио #3: /ENG/ AC3, 5.1 ch, 384 Kbps (Original)
Код: выделить все
Общее
Уникальный идентификатор : 253842347018359601676225089501266927892 (0xBEF841FA6FF0E9DB88D59960F65F6114)
Полное имя : E:\DOWNLOADS\Настоящий детектив (2014) HDTV 1080\Настоящий детектив - 01 серия.mkv
Формат : Matroska
Версия формата : Version 4 / Version 2
Размер файла : 5,15 Гбайт
Продолжительность : 59 м.
Режим общего битрейта : Переменный
Общий поток : 12,4 Мбит/сек
Дата кодирования : UTC 2014-03-17 15:39:56
Программа кодирования : mkvmerge v6.1.0 ('Old Devil') built on Mar 4 2013 09:10:42
Библиотека кодирования : libebml v1.3.0 + libmatroska v1.4.0

Видео
Идентификатор : 1
Формат : MPEG Video
Версия формата : Version 2
Профиль формата : Main@High
Параметр BVOP формата : Нет
Параметр матрицы формата : Выборочная
Идентификатор кодека : V_MPEG2
Идентификатор кодека/Информация : MPEG 1 or 2 Video
Продолжительность : 59 м.
Вид битрейта : Переменный
Битрейт : 11,0 Мбит/сек
Максимальный битрейт : 24,0 Мбит/сек
Ширина : 1920 пикселей
Высота : 1080 пикселей
Соотношение сторон : 16:9
Режим частоты кадров : Постоянный
Частота кадров : 29,970 кадров/сек
Цветовое пространство : YUV
Субдискретизация насыщенности : 4:2:0
Битовая глубина : 8 бит
Тип развёртки : Чересстрочная
Порядок развёртки : Верхнее поле первое
Метод сжатия : С потерями
Бит/(Пиксели*Кадры) : 0.176
Временной код первого кадра : 00:00:00;00
Оригинал временного кода : Group of pictures header
Размер потока : 4,57 Гбайт (89%)
Default : Да
Forced : Нет

Аудио #1
Идентификатор : 2
Формат : AC-3
Формат/Информация : Audio Coding 3
Расширение режима : CM (complete main)
Параметр Endianness формата : Big
Идентификатор кодека : A_AC3
Продолжительность : 59 м.
Вид битрейта : Постоянный
Битрейт : 384 Кбит/сек
Каналы : 6 каналов
Расположение каналов : Front: L C R, Side: L R, LFE
Частота : 48,0 КГц
Битовая глубина : 16 бит
Метод сжатия : С потерями
Размер потока : 164 Мбайт (3%)
Заголовок : Кубик в Кубе
Язык : Russian
Default : Да
Forced : Нет

Аудио #2
Идентификатор : 3
Формат : AC-3
Формат/Информация : Audio Coding 3
Расширение режима : CM (complete main)
Параметр Endianness формата : Big
Идентификатор кодека : A_AC3
Продолжительность : 59 м.
Вид битрейта : Постоянный
Битрейт : 384 Кбит/сек
Каналы : 6 каналов
Расположение каналов : Front: L C R, Side: L R, LFE
Частота : 48,0 КГц
Битовая глубина : 16 бит
Метод сжатия : С потерями
Размер потока : 164 Мбайт (3%)
Заголовок : Amedia
Язык : Russian
Default : Нет
Forced : Нет

Аудио #3
Идентификатор : 4
Формат : AC-3
Формат/Информация : Audio Coding 3
Расширение режима : CM (complete main)
Параметр Endianness формата : Big
Идентификатор кодека : A_AC3
Продолжительность : 59 м.
Вид битрейта : Постоянный
Битрейт : 384 Кбит/сек
Каналы : 6 каналов
Расположение каналов : Front: L C R, Side: L R, LFE
Частота : 48,0 КГц
Битовая глубина : 16 бит
Метод сжатия : С потерями
Размер потока : 164 Мбайт (3%)
Заголовок : Original
Язык : English
Default : Нет
Forced : Нет
01 серия - The Long Bright Dark / Огромная яркая темнота
02 серия - Seeing Things / Галлюцинации
03 серия - The Locked Room / Закрытая комната
04 серия - Who Goes There / Кто туда пойдет
05 серия - The Secret Fate of All Life / Тайная судьба всей жизни
06 серия - Haunted Houses / Дома с привидениями
07 серия - After You've Gone / После того, как ты ушел
08 серия - Form and Void / Форма и пустота
Скриншоты:


Все раздачи сериала «Настоящий детектив»

Время раздачи: с 10.00 до 20.00
[NNM-Club.me]_Nastoyashchiy detektiv (2014) HDTV 1080.torrent
 Торрент: Платиновая раздача  Зарегистрирован
 
Скачать


Примагнититься
 Зарегистрирован:   17 Мар 2014 19:51:11
 Размер:   45,8 GB  (
 Рейтинг:   4,8 (Голосов: 130)
 Поблагодарили:   399
 Проверка:   Оформление проверено модератором 18 Мар 2014 10:04:05
Как cкачать  ·  Как раздать  ·  Правильно оформить  ·  Поднять ратио!  
seperovych ®
Стаж: 9 лет 8 мес.
Сообщений: 1501
Ratio: 55,093
Раздал: 35,58 TB
Поблагодарили: 150004
100%
Откуда: Киев
ukraine.gif
Русские и английские субтитры для всех серий! Скачивайте...
seperovych ®
Стаж: 9 лет 8 мес.
Сообщений: 1501
Ratio: 55,093
Раздал: 35,58 TB
Поблагодарили: 150004
100%
Откуда: Киев
ukraine.gif
Звуковые дорожки от
Перевод: Профессиональный, многоголосый закадровый (AC3, 5.1 ch, 384 Kbps)!
Скачивайте...


http:/Ссылка
 !  Примечание от Robert Ingil:
Без ссылок (2.11). А для звуковых дорожек есть отдельный раздел.
wtf1972
Стаж: 6 лет 3 мес.
Сообщений: 327
Ratio: 31,348
100%
russia.gif
1 сезон однозначно шедевр всем кто не видел к просмотру обязателен второй на много слабее.
hppl
Стаж: 6 лет 2 мес.
Сообщений: 534
Ratio: 2,787
Раздал: 1,102 TB
100%
north_korea.gif
кто не смотрел, очень советую
пересматривал раз 6-8 и еще пересмотрю

_________________
house people
6 сентября 2к17 года бросил курить
guestello
Стаж: 8 лет 7 мес.
Сообщений: 209
Ratio: 4,468
100%
wtf1972, полностью согласен-вчера закончил просмотр 2 сезона, разочарован. С удовольствием еще раз посмотрю 1
Zigagurt1488
Стаж: 5 лет 6 мес.
Сообщений: 8
Ratio: 17,45
100%
russia.gif
2 сезон тоже нормальный
hppl
Стаж: 6 лет 2 мес.
Сообщений: 534
Ratio: 2,787
Раздал: 1,102 TB
100%
north_korea.gif
2-й интересен только последние 30 минут последней серии

_________________
house people
6 сентября 2к17 года бросил курить
Показать сообщения:   
Начать новую тему   Ответить на тему    Торрент-трекер NNM-Club -> Зарубежные сериалы Часовой пояс: GMT + 3
Страница 1 из 1