Классический форум-трекер
canvas not supported
Нас вместе: 4 095 176

Настоящий детектив / True Detective (2014) HDTVRip (Сезон 1, серии 1-8 из 8) Кубик в Кубе + Amedia


 
 
RSS
Начать новую тему   Ответить на тему    Торрент-трекер NNM-Club -> Зарубежные сериалы
Автор Сообщение
seperovych ®
Стаж: 9 лет 8 мес.
Сообщений: 1501
Ratio: 55,093
Раздал: 35,58 TB
Поблагодарили: 150055
100%
Откуда: Киев
ukraine.gif
Настоящий детектив / True Detective (2014) HDTVRip (Сезон 1, серии 1-8 из 8) Кубик в Кубе + Amedia
Производство: "HBO", США
Год выпуска: 2014
Жанр: Драма, Криминал

Перевод:
Профессиональный, двухголосый закадровый - Кубик в Кубе
Профессиональный, многоголосый закадровый - Amedia

Режиссер: Кэри Фукунага
Актеры: Мэттью МакКонахи, Вуди Харрельсон, Мишель Монахэн, Брюс Эллиотт, Рендал Гонсалес, Тори Киттлз, Дэвид Стивен Митчелл, Майкл Поттс, Эрик Прайс, Мэдисон Вульф

Описание фильма:
Главные герои — два детектива. В 2012 году в штате Луизиана повторно открывается дело о серийном убийстве в 1995 году. Детективы познакомились 17 лет назад, когда началось расследование, и с тех пор вместе охотились за киллером. Повествование будет вестись как в наше время, так и откатится назад, в середину девяностых.



Дата мировой премьеры: 12.01.2014
Дата российской премьеры: 13.01.2014

Продолжительность: 8 x ~ 01:00:00
Качество видео: HDTVRip (Рип с HDTV 1080i)

Видеокодек: Xvid
Битрейт видео: ~2000 Kbps
Размер кадра: 720x400
Аудио #1: /RUS/ AC3, 5.1 ch, 384 Kbps (Кубик в Кубе)
Аудио #2: /RUS/ AC3, 5.1 ch, 384 Kbps (Amedia)
Аудио #3: /ENG/ AC3, 5.1 ch, 384 Kbps (Original)
Код: выделить все
Общее
Полное имя : E:\DOWNLOADS\Настоящий детектив (2014) HDTVRip\Настоящий детектив - 01 серия.avi
Формат : AVI
Формат/Информация : Audio Video Interleave
Размер файла : 1,32 Гбайт
Продолжительность : 59 м.
Общий поток : 3176 Кбит/сек
Программа кодирования : VirtualDubMod 1.5.10.3 | www.virtualdub-fr.org || (build 2550/release)
Библиотека кодирования : VirtualDubMod build 2550/release

Видео
Идентификатор : 0
Формат : MPEG-4 Visual
Профиль формата : Advanced Simple@L5
Параметр BVOP формата : 1
Параметр QPel формата : Нет
Параметр GMC формата : Без точки перехода
Параметр матрицы формата : Default (MPEG)
Идентификатор кодека : XVID
Идентификатор кодека/Подсказка : XviD
Продолжительность : 59 м.
Битрейт : 2005 Кбит/сек
Ширина : 720 пикселей
Высота : 400 пикселей
Соотношение сторон : 16:9
Частота кадров : 23,976 кадра/сек
Цветовое пространство : YUV
Субдискретизация насыщенности : 4:2:0
Битовая глубина : 8 бит
Тип развёртки : Прогрессивная
Метод сжатия : С потерями
Бит/(Пиксели*Кадры) : 0.290
Размер потока : 857 Мбайт (63%)
Библиотека кодирования : XviD 65

Аудио #1
Идентификатор : 1
Формат : AC-3
Формат/Информация : Audio Coding 3
Расширение режима : CM (complete main)
Параметр Endianness формата : Big
Идентификатор кодека : 2000
Продолжительность : 59 м.
Вид битрейта : Постоянный
Битрейт : 384 Кбит/сек
Каналы : 6 каналов
Расположение каналов : Front: L C R, Side: L R, LFE
Частота : 48,0 КГц
Битовая глубина : 16 бит
Метод сжатия : С потерями
Размер потока : 164 Мбайт (12%)
Выравнивание : Разделение по промежуткам
Продолжительность промежутка : 42 мс. (1,00 видеокадр)
Время предзагрузки промежутка : 500 мс.

Аудио #2
Идентификатор : 2
Формат : AC-3
Формат/Информация : Audio Coding 3
Расширение режима : CM (complete main)
Параметр Endianness формата : Big
Идентификатор кодека : 2000
Продолжительность : 59 м.
Вид битрейта : Постоянный
Битрейт : 384 Кбит/сек
Каналы : 6 каналов
Расположение каналов : Front: L C R, Side: L R, LFE
Частота : 48,0 КГц
Битовая глубина : 16 бит
Метод сжатия : С потерями
Размер потока : 164 Мбайт (12%)
Выравнивание : Разделение по промежуткам
Продолжительность промежутка : 42 мс. (1,00 видеокадр)
Время предзагрузки промежутка : 500 мс.

Аудио #3
Идентификатор : 3
Формат : AC-3
Формат/Информация : Audio Coding 3
Расширение режима : CM (complete main)
Параметр Endianness формата : Big
Идентификатор кодека : 2000
Продолжительность : 59 м.
Вид битрейта : Постоянный
Битрейт : 384 Кбит/сек
Каналы : 6 каналов
Расположение каналов : Front: L C R, Side: L R, LFE
Частота : 48,0 КГц
Битовая глубина : 16 бит
Метод сжатия : С потерями
Размер потока : 164 Мбайт (12%)
Выравнивание : Разделение по промежуткам
Продолжительность промежутка : 42 мс. (1,00 видеокадр)
Время предзагрузки промежутка : 500 мс.
01 серия - The Long Bright Dark / Огромная яркая темнота
02 серия - Seeing Things / Галлюцинации
03 серия - The Locked Room / Закрытая комната
04 серия - Who Goes There / Кто туда пойдет
05 серия - The Secret Fate of All Life / Тайная судьба всей жизни
06 серия - Haunted Houses / Дома с привидениями
07 серия - After You've Gone / После того, как ты ушел
08 серия - Form and Void / Форма и пустота
Скриншоты:


Все раздачи сериала «Настоящий детектив»

Время раздачи: с 10.00 до 20.00
[NNM-Club.me]_Nastoyashchiy detektiv (2014) HDTVRip.torrent
 Торрент: Платиновая раздача  Зарегистрирован
 
Скачать


Примагнититься
 Зарегистрирован:   17 Мар 2014 20:27:49
 Размер:   10,4 GB  (
 Рейтинг:   4,9 (Голосов: 87)
 Поблагодарили:   456
 Проверка:   Оформление проверено модератором 18 Мар 2014 05:22:33
Как cкачать  ·  Как раздать  ·  Правильно оформить  ·  Поднять ратио!  
seperovych ®
Стаж: 9 лет 8 мес.
Сообщений: 1501
Ratio: 55,093
Раздал: 35,58 TB
Поблагодарили: 150055
100%
Откуда: Киев
ukraine.gif
Русские и английские субтитры для всех серий! Скачивайте...
seperovych ®
Стаж: 9 лет 8 мес.
Сообщений: 1501
Ratio: 55,093
Раздал: 35,58 TB
Поблагодарили: 150055
100%
Откуда: Киев
ukraine.gif
del
Selichkin
Стаж: 8 лет 2 мес.
Сообщений: 68
Ratio: 9,561
100%
Отлично! Посмотрел с удовольствием!
specovik
Стаж: 9 лет
Сообщений: 12
Ratio: 15,28
86.67%
Откуда: Лен обл.
russia.gif
спасибо- оценим.
dimalla
Стаж: 8 лет
Сообщений: 17
Ratio: 1,621
8.86%
Самая классная раздача, а вот субтитры скачиваются с ошибкой :(
Не понимаю чем скачать сабы. У меня предлагает в вариантах не программы, а папки. Искать торрент-программу? Я понятия не имею где её экзэшник и как его найти. А винраром и проводником ничего не открывается, выдаёт ошибку и пишет, что файл 0 кбайт. Спасайте...
Divergence2000
Стаж: 6 лет 2 мес.
Сообщений: 1
Ratio: 41,608
22.94%
Очень понравился сериал! Макконахи меня поразил, я его раньше не воспринимала, а в этой роли он реально крутой!
HeKKuB
Стаж: 7 лет 5 мес.
Сообщений: 263
Ratio: 42,297
Поблагодарили: 3619
100%
kazakhstan.gif
друзья, озвучка от Amedia с цензурой? маме хочу фильм показать)
автору плюс, кино достойное)
nonerasible
Стаж: 7 лет 1 мес.
Сообщений: 40
Ratio: 1,218
25.21%
russia.gif
Спасибо за релиз. Фильм отличный!
alek7070
Стаж: 9 лет 9 мес.
Сообщений: 8
Ratio: 2,638
18.24%
russia.gif
Спасибо. Кубик в Кубе больше понравился.
PivnoyAlkash

Online
Стаж: 7 лет 10 мес.
Сообщений: 79
Ratio: 6,086
Поблагодарили: 2
100%
ukraine.gif
Достойный фильм, актеры классные, давно не смотрел такого качественного кино! Перевод хороший, Кубик в Кубе норм переводит!
toNY_matrix
Реставратор Клуба
Модератор Консольных Игр
 
Стаж: 11 лет 6 мес.
Сообщений: 2932
Ratio: 134,395
Поблагодарили: 37410
100%
Откуда: Оттуда
pirates.png
Отличный сериал. Второй сезон ожидается? Хотя сложновато представить,что будет дальше....
Pashketan
Куратор Музыки
Стаж: 10 лет 3 мес.
Сообщений: 9206
Ratio: 13,33
Поблагодарили: 158466
100%
nnm-club.gif
toNY_matrix писал(а): Перейти к сообщению
Второй сезон ожидается?

Сезон 2 - 2015
Показать сообщения:   
Начать новую тему   Ответить на тему    Торрент-трекер NNM-Club -> Зарубежные сериалы Часовой пояс: GMT + 3
Страница 1 из 1