Классический форум-трекер
canvas not supported
Нас вместе: 4 093 212

Sendai - A Smaller Divide (2014) [FLAC|Lossless]<Techno, Experimental>


 
 
RSS
Начать новую тему   Ответить на тему    Торрент-трекер NNM-Club -> Electronic -> House, Techno, Electro, Minimal (Lossless)
Автор Сообщение
Fraudy ®
Стаж: 10 лет 2 мес.
Сообщений: 2178
Ratio: 140,374
Раздал: 51,08 TB
Поблагодарили: 58269
100%
ussr.gif
Sendai - A Smaller Divide (2014)




Год: 2014
Жанр: Techno, Experimental
Лейбл: Archives Interieures
Каталог#: AICD 02
Продолжительность: 00:45:46

Кодек: FLAC
Битрейт: Lossless
Тип рипа: tracks+cue+log

Треклист:

01. Capstan (02:56)
02. Anti-Jupiter (02:47)
03. Second Uniform Estimate (03:59)
04. Fringe Morals (04:12)
05. A Smaller Divide (03:33)
06. Triptiek (05:35)
07. Sequential Convex (05:44)
08. Self-adjoint (03:06)
09. Kanton3 (04:11)
10. Norms Of True Behavior (04:31)
11. Tetras Part (05:07)




Код:

Exact Audio Copy V1.0 beta 3 from 29. August 2011

EAC extraction logfile from 19. March 2014, 23:42

Sendai / A Smaller Divide

Used drive  : ATAPI   DVD A  DH16A3S   Adapter: 3  ID: 3

Read mode               : Secure
Utilize accurate stream : Yes
Defeat audio cache      : Yes
Make use of C2 pointers : No

Read offset correction                      : 6
Overread into Lead-In and Lead-Out          : No
Fill up missing offset samples with silence : Yes
Delete leading and trailing silent blocks   : No
Null samples used in CRC calculations       : Yes
Used interface                              : Native Win32 interface for Win NT & 2000
Gap handling                                : Appended to previous track

Used output format              : User Defined Encoder
Selected bitrate                : 1024 kBit/s
Quality                         : High
Add ID3 tag                     : No
Command line compressor         : C:\Program Files (x86)\Exact Audio Copy\Flac\flac.exe
Additional command line options : -8 -V -T "ARTIST=%artist%" -T "TITLE=%title%" -T "ALBUM=%albumtitle%" -T "DATE=%year%" -T "TRACKNUMBER=%tracknr%" -T "GENRE=%genre%" -T "PERFORMER=%albuminterpret%" -T "COMPOSER=%composer%" %haslyrics%--tag-from-file=LYRICS="%lyricsfile%"%haslyrics% -T "ALBUMARTIST=%albumartist%" -T "DISCNUMBER=%cdnumber%" -T "TOTALDISCS=%totalcds%" -T "TOTALTRACKS=%numtracks%" -T "COMMENT=%comment%" %source% -o %dest%

TOC of the extracted CD

     Track |   Start  |  Length  | Start sector | End sector
    ---------------------------------------------------------
        1  |  0:00.00 |  2:56.09 |         0    |    13208
        2  |  2:56.09 |  2:47.10 |     13209    |    25743
        3  |  5:43.19 |  3:59.02 |     25744    |    43670
        4  |  9:42.21 |  4:12.67 |     43671    |    62637
        5  | 13:55.13 |  3:33.33 |     62638    |    78645
        6  | 17:28.46 |  5:35.19 |     78646    |   103789
        7  | 23:03.65 |  5:44.59 |    103790    |   129648
        8  | 28:48.49 |  3:06.58 |    129649    |   143656
        9  | 31:55.32 |  4:11.09 |    143657    |   162490
       10  | 36:06.41 |  4:31.61 |    162491    |   182876
       11  | 40:38.27 |  5:07.74 |    182877    |   205975

Track  1

     Filename C:\RIPS\01. Sendai - Capstan.wav

     Pre-gap length  0:00:02.00

     Peak level 98.8 %
     Extraction speed 3.8 X
     Track quality 100.0 %
     Test CRC AAB3161F
     Copy CRC AAB3161F
     Track not present in AccurateRip database
     Copy OK

Track  2

     Filename C:\RIPS\02. Sendai - Anti-Jupiter.wav

     Peak level 98.8 %
     Extraction speed 4.1 X
     Track quality 100.0 %
     Test CRC 98D99235
     Copy CRC 98D99235
     Track not present in AccurateRip database
     Copy OK

Track  3

     Filename C:\RIPS\03. Sendai - Second Uniform Estimate.wav

     Peak level 98.8 %
     Extraction speed 3.9 X
     Track quality 99.9 %
     Test CRC C79610DC
     Copy CRC C79610DC
     Track not present in AccurateRip database
     Copy OK

Track  4

     Filename C:\RIPS\04. Sendai - Fringe Morals.wav

     Peak level 97.7 %
     Extraction speed 5.2 X
     Track quality 100.0 %
     Test CRC 32448CB8
     Copy CRC 32448CB8
     Track not present in AccurateRip database
     Copy OK

Track  5

     Filename C:\RIPS\05. Sendai - A Smaller Divide.wav

     Peak level 98.4 %
     Extraction speed 4.3 X
     Track quality 99.9 %
     Test CRC 699B896A
     Copy CRC 699B896A
     Track not present in AccurateRip database
     Copy OK

Track  6

     Filename C:\RIPS\06. Sendai - Triptiek.wav

     Peak level 98.8 %
     Extraction speed 6.1 X
     Track quality 100.0 %
     Test CRC 4CBD465B
     Copy CRC 4CBD465B
     Track not present in AccurateRip database
     Copy OK

Track  7

     Filename C:\RIPS\07. Sendai - Sequential Convex.wav

     Peak level 98.8 %
     Extraction speed 6.6 X
     Track quality 100.0 %
     Test CRC 91773E5D
     Copy CRC 91773E5D
     Track not present in AccurateRip database
     Copy OK

Track  8

     Filename C:\RIPS\08. Sendai - Self-adjoint.wav

     Peak level 98.8 %
     Extraction speed 6.3 X
     Track quality 100.0 %
     Test CRC 99CA35EB
     Copy CRC 99CA35EB
     Track not present in AccurateRip database
     Copy OK

Track  9

     Filename C:\RIPS\09. Sendai - Kanton3.wav

     Peak level 98.8 %
     Extraction speed 6.9 X
     Track quality 100.0 %
     Test CRC 6A7D9421
     Copy CRC 6A7D9421
     Track not present in AccurateRip database
     Copy OK

Track 10

     Filename C:\RIPS\10. Sendai - Norms Of True Behavior.wav

     Peak level 98.8 %
     Extraction speed 7.2 X
     Track quality 100.0 %
     Test CRC 73252478
     Copy CRC 73252478
     Track not present in AccurateRip database
     Copy OK

Track 11

     Filename C:\RIPS\11. Sendai - Tetras Part.wav

     Peak level 98.8 %
     Extraction speed 7.6 X
     Track quality 100.0 %
     Test CRC 1E91EC6E
     Copy CRC 1E91EC6E
     Track not present in AccurateRip database
     Copy OK

None of the tracks are present in the AccurateRip database

No errors occurred

End of status report

---- CUETools DB Plugin V2.1.3

[CTDB TOCID: AuCgnfewDbJVAqxQ9OplsycKvJg-] found, Submit result: AuCgnfewDbJVAqxQ9OplsycKvJg- has been confirmed
[4407e164] (1/1) Accurately ripped

==== Log checksum 135887100CEE924E7421DAF2C1C53A3E3A27CDBD797F09BA565232D8C0F47F02 ====
Код:

-----------------------

DON'T MODIFY THIS FILE

-----------------------

PERFORMER: auCDtect Task Manager, ver. 1.6.0 RC1 build 1.6.0.1
Copyright (c) 2008-2010 y-soft. All rights reserved
http://y-soft.org

ANALYZER: auCDtect: CD records authenticity detector, version 0.8.2
Copyright (c) 2004 Oleg Berngardt. All rights reserved.
Copyright (c) 2004 Alexander Djourik. All rights reserved.

FILE: 11 - Tetras Part.flac
  Size: 36975872 Hash: 66EDC37DE6C6BD67B4B861324ECC3479 Accuracy: -m0
  Conclusion: CDDA 100%
  Signature: CF237A8E19584A3FF6612E69DF0AC775F43096C5
FILE: 10 - Norms Of True Behavior.flac
  Size: 25594705 Hash: B5D75773B53C12FB95AFF477AD02A7CA Accuracy: -m0
  Conclusion: CDDA 100%
  Signature: 9FF4A3298F6BBBC510E8BF1F4B6F8022C541D47D
FILE: 09 - Kanton3.flac
  Size: 31895924 Hash: B3A152FC4B9EC72F390F3B2BBDE00F1F Accuracy: -m0
  Conclusion: CDDA 100%
  Signature: 280510FFDE5AD0DD534ECD5BBAA0A6B707B525C2
FILE: 08 - Self-adjoint.flac
  Size: 20639839 Hash: 9EECB2B8EA89168D1A12F3824A5EFF19 Accuracy: -m0
  Conclusion: CDDA 100%
  Signature: 3437DD9AB9B45090874D0D158351C3DD9DF85F7B
FILE: 07 - Sequential Convex.flac
  Size: 43169010 Hash: 02D5F55225E73104EBCC5BD2081D0C61 Accuracy: -m0
  Conclusion: CDDA 100%
  Signature: 315D44609DBE410FAD5A2379D8570B72EB6B99AE
FILE: 06 - Triptiek.flac
  Size: 40286886 Hash: B7D83C9097079E997032B8782FA97D52 Accuracy: -m0
  Conclusion: CDDA 100%
  Signature: DE409CF594643C8E60A2EF7947763E7046B056CB
FILE: 05 - A Smaller Divide.flac
  Size: 30523207 Hash: C802DF0336B9C9F71077C57DD9E92C75 Accuracy: -m0
  Conclusion: CDDA 100%
  Signature: A4F0B7AC4371B4D304A83F38519D46CA6FD64A6D
FILE: 04 - Fringe Morals.flac
  Size: 35781119 Hash: 2C00AFD9197CB7FD07724A4166E5949F Accuracy: -m0
  Conclusion: CDDA 100%
  Signature: 054EC11555B18CD76410587EDF0BF177449F98CA
FILE: 03 - Second Uniform Estimate.flac
  Size: 34556744 Hash: 47E4431BF012F38A064B5190E80F856D Accuracy: -m0
  Conclusion: CDDA 100%
  Signature: 706674D13193CC9C07B539F46D096EAEEA9E58F3
FILE: 02 - Anti-Jupiter.flac
  Size: 20279157 Hash: 5AABFCF76D9CC4478A4560A8393D9E53 Accuracy: -m0
  Conclusion: CDDA 100%
  Signature: FFFAE70E181F1ECC1EBC94F08AA1446504C425B9
FILE: 01 - Capstan.flac
  Size: 24766796 Hash: 0FCCD66EC7280074FBAED4EBA4160B9A Accuracy: -m0
  Conclusion: CDDA 100%
  Signature: E6364737964062516556D8DCB9DB3ED3FBF1401B
REM GENRE Techno
REM DATE 2014
REM DISCID 900ABA0B
REM COMMENT "ExactAudioCopy v1.0b3"
PERFORMER "Sendai"
TITLE "A Smaller Divide"
FILE "01 - Capstan.flac" WAVE
TRACK 01 AUDIO
TITLE "Capstan"
PERFORMER "Sendai"
ISRC <CX840800098
INDEX 01 00:00:00
FILE "02 - Anti-Jupiter.flac" WAVE
TRACK 02 AUDIO
TITLE "Anti-Jupiter"
PERFORMER "Sendai"
ISRC <CX840800099
INDEX 01 00:00:00
FILE "03 - Second Uniform Estimate.flac" WAVE
TRACK 03 AUDIO
TITLE "Second Uniform Estimate"
PERFORMER "Sendai"
ISRC <CX840800100
INDEX 01 00:00:00
FILE "04 - Fringe Morals.flac" WAVE
TRACK 04 AUDIO
TITLE "Fringe Morals"
PERFORMER "Sendai"
ISRC <CX840800101
INDEX 01 00:00:00
FILE "05 - A Smaller Divide.flac" WAVE
TRACK 05 AUDIO
TITLE "A Smaller Divide"
PERFORMER "Sendai"
ISRC <CX840800102
INDEX 01 00:00:00
FILE "06 - Triptiek.flac" WAVE
TRACK 06 AUDIO
TITLE "Triptiek"
PERFORMER "Sendai"
ISRC <CX840800102
INDEX 01 00:00:00
FILE "07 - Sequential Convex.flac" WAVE
TRACK 07 AUDIO
TITLE "Sequential Convex"
PERFORMER "Sendai"
ISRC <CX840800104
INDEX 01 00:00:00
FILE "08 - Self-adjoint.flac" WAVE
TRACK 08 AUDIO
TITLE "Self-adjoint"
PERFORMER "Sendai"
ISRC <CX840800105
INDEX 01 00:00:00
FILE "09 - Kanton3.flac" WAVE
TRACK 09 AUDIO
TITLE "Kanton3"
PERFORMER "Sendai"
ISRC <CX840800105
INDEX 01 00:00:00
FILE "10 - Norms Of True Behavior.flac" WAVE
TRACK 10 AUDIO
TITLE "Norms Of True Behavior"
PERFORMER "Sendai"
ISRC <CX840800106
INDEX 01 00:00:00
FILE "11 - Tetras Part.flac" WAVE
TRACK 11 AUDIO
TITLE "Tetras Part"
PERFORMER "Sendai"
ISRC <CX840800108
INDEX 01 00:00:00


Время раздачи: До 5 сидов
[NNM-Club.me]_Sendai - A Smaller Divide - 2014 - FLAC.torrent
 Торрент: Платиновая раздача  Зарегистрирован
 
Скачать


Примагнититься
 Зарегистрирован:   22 Мар 2014 12:18:46
 Размер:   329 MB  (
 Рейтинг:    (Голосов: 6)
 Поблагодарили:   31
 Проверка:   Оформление проверено модератором 22 Мар 2014 12:23:31
Как cкачать  ·  Как раздать  ·  Правильно оформить  ·  Поднять ратио!  
Fraudy ®
Стаж: 10 лет 2 мес.
Сообщений: 2178
Ratio: 140,374
Раздал: 51,08 TB
Поблагодарили: 58269
100%
ussr.gif
Замечу, музыка однозначно не для backgroud.

_________________
Искусство должно принадлежать народу © В.И. Ульянов-Ленин™
Skrux
Стаж: 5 лет 5 мес.
Сообщений: 37
Ratio: 0,125
100%
russia.gif
раздайте пожалуйста!

_________________
челом бьет
Показать сообщения:   
Начать новую тему   Ответить на тему    Торрент-трекер NNM-Club -> Electronic -> House, Techno, Electro, Minimal (Lossless) Часовой пояс: GMT + 3
Страница 1 из 1