Классический форум-трекер
canvas not supported
Нас вместе: 4 079 230

Gekijouban Steins;Gate: Fuka Ryouiki no Deja vu / Врата Штейна [2013, MV] BDRemux 1080p raw + rus x2


 
 
RSS
Начать новую тему   Ответить на тему    Торрент-трекер NNM-Club -> Аниме разное -> Аниме Blu-ray, Remux
Автор Сообщение
rfpym ®
Стаж: 7 лет 5 мес.
Сообщений: 5
Ratio: 49,669
Раздал: 14,45 TB
Поблагодарили: 337
100%
Gekijouban Steins;Gate: Fuka Ryouiki no Deja vu / Врата Штейна (2013)


Год выпуска: 2013
Жанр: триллер, фантастика, драма
Режиссер: Вакабаяси Кандзи
Студия: White Fox
Перевод:

Русские субтитры от:

Firegorn-Team & CAMELIASUBS
Sa4ko aka Kiyoso & Zenobian
Stan WarHammer & Nesitach
Xome4OK & Chidry

Озвучка:

loster01 & Emeri (двухголосая, муж+жен)
Zendos & Eladiel (двухголосая, муж+жен)

Хардсаб: Отсутствует
Тип: полнометражный фильм
Продолжительность: 01:30:02
Описание:
Год назад Окабе Ринтаро удалось стабилизировать мировую линию, в которой ни один из его друзей не погибает. Однако многочисленные путешествия во времени ,которые он тогда совершил, привели к возникновению множества побочных эффектов. Накопившись, они вызвали исчезновение Ринтаро из этого мира. И только его девушка Макисэ помнит о нём. Будучи талантливым физиком, она начинает искать способы вернуть любимого назад.

World Art
Качество: BD Remux
Формат: MKV
Видео: H.264, 1920x1080 23.976fps 37749 kbps (8bit)
Аудио 1 JAP: PCM 48000Hz stereo 2304 kbps
Аудио 2 JAP: DTS-HD MA 48000Hz 6ch 3149 kbps
Аудио 3 / 4 RUS: Dolby AC3 48000Hz stereo 320 kbps

Код:
Общее
Уникальный идентификатор : 196525409668103536120631454536504832166 (0x93D96AC91D88971A97DD849A290DF0A6)
Полное имя : Y:\Steins;Gate – Fuka Ryouiki no Deja vu [BDRemux 1920x1080 x264 PCM] .mkv
Формат : Matroska
Версия формата : Version 4 / Version 2
Размер файла : 27,5 Гбайт
Продолжительность : 1 ч. 30 м.
Режим общего битрейта : Переменный
Общий поток : 43,7 Мбит/сек
Дата кодирования : UTC 2014-03-19 05:42:01
Программа кодирования : mkvmerge v6.3.0 ('You can't stop me!') built on Jul 19 2013 16:27:38
Библиотека кодирования : libebml v1.3.0 + libmatroska v1.4.1

Видео
Идентификатор : 1
Формат : AVC
Формат/Информация : Advanced Video Codec
Профиль формата : High@L4.1
Параметр CABAC формата : Да
Параметр ReFrames формата : 4 кадра
Идентификатор кодека : V_MPEG4/ISO/AVC
Продолжительность : 1 ч. 30 м.
Вид битрейта : Переменный
Максимальный битрейт : 39,0 Мбит/сек
Ширина : 1920 пикселей
Высота : 1080 пикселей
Соотношение сторон : 16:9
Режим частоты кадров : Постоянный
Частота кадров : 23,976 кадра/сек
Цветовое пространство : YUV
Субдискретизация насыщенности : 4:2:0
Битовая глубина : 8 бит
Тип развёртки : Прогрессивная
Default : Да
Forced : Нет

Аудио #1
Идентификатор : 2
Формат : PCM
Идентификатор кодека : A_PCM/INT/LIT
Продолжительность : 1 ч. 30 м.
Вид битрейта : Постоянный
Каналы : 2 канала
Частота : 48,0 КГц
Битовая глубина : 24 бит
Язык : Japanese
Default : Нет
Forced : Нет

Аудио #2
Идентификатор : 3
Формат : DTS
Формат/Информация : Digital Theater Systems
Профиль формата : MA / Core
Режим : 16
Параметр Endianness формата : Big
Идентификатор кодека : A_DTS
Продолжительность : 1 ч. 30 м.
Вид битрейта : Переменный
Битрейт : Неизвестно / 1509 Кбит/сек
Каналы : 6 каналов
Расположение каналов : Front: L C R, Side: L R, LFE
Частота : 48,0 КГц
Битовая глубина : 24 бит
Метод сжатия : Без потерь / Lossy
Заголовок : DTS-HD MA 48000Hz 6ch 3149 kbps
Язык : Japanese
Default : Да
Forced : Нет

Аудио #3
Идентификатор : 8
Формат : AC-3
Формат/Информация : Audio Coding 3
Расширение режима : CM (complete main)
Параметр Endianness формата : Big
Идентификатор кодека : A_AC3
Продолжительность : 1 ч. 30 м.
Вид битрейта : Постоянный
Битрейт : 320 Кбит/сек
Каналы : 2 канала
Расположение каналов : Front: L R
Частота : 48,0 КГц
Битовая глубина : 16 бит
Метод сжатия : С потерями
Размер потока : 206 Мбайт (1%)
Заголовок : Zendos & Eladiel
Язык : Russian
Default : Нет
Forced : Нет

Аудио #4
Идентификатор : 9
Формат : AC-3
Формат/Информация : Audio Coding 3
Расширение режима : CM (complete main)
Параметр Endianness формата : Big
Идентификатор кодека : A_AC3
Продолжительность : 1 ч. 30 м.
Вид битрейта : Постоянный
Битрейт : 320 Кбит/сек
Каналы : 2 канала
Расположение каналов : Front: L R
Частота : 48,0 КГц
Битовая глубина : 16 бит
Метод сжатия : С потерями
Размер потока : 206 Мбайт (1%)
Заголовок : loster01_&_Emeri
Язык : Russian
Default : Нет
Forced : Нет

Текст #1
Идентификатор : 4
Формат : ASS
Идентификатор кодека : S_TEXT/ASS
Идентификатор кодека/Информация : Advanced Sub Station Alpha
Метод сжатия : Без потерь
Заголовок : Xome4OK & Chidry
Язык : Russian
Default : Нет
Forced : Нет

Текст #2
Идентификатор : 5
Формат : ASS
Идентификатор кодека : S_TEXT/ASS
Идентификатор кодека/Информация : Advanced Sub Station Alpha
Метод сжатия : Без потерь
Заголовок : Stan WarHammer & Nesitach
Язык : Russian
Default : Да
Forced : Нет

Текст #3
Идентификатор : 6
Формат : ASS
Идентификатор кодека : S_TEXT/ASS
Идентификатор кодека/Информация : Advanced Sub Station Alpha
Метод сжатия : Без потерь
Заголовок : Sa4ko aka Kiyoso & Zenobian
Язык : Russian
Default : Нет
Forced : Нет

Текст #4
Идентификатор : 7
Формат : ASS
Идентификатор кодека : S_TEXT/ASS
Идентификатор кодека/Информация : Advanced Sub Station Alpha
Метод сжатия : Без потерь
Заголовок : Firegorn-Team & CAMELIASUBS
Язык : Russian
Default : Нет
Forced : Нет

Скриншоты:


Время раздачи: 24/7
[NNM-Club.me]_Steins;Gate – Fuka Ryouiki no Deja vu [BDRemux 1920x1080 x264 PCM] .mkv.torrent
 Торрент: Платиновая раздача  Зарегистрирован
 
Скачать


Примагнититься
 Зарегистрирован:   28 Мар 2014 08:31:58
 Размер:   27,5 GB  (
 Рейтинг:   4,5 (Голосов: 27)
 Поблагодарили:   56
 Проверка:   Оформление проверено модератором 28 Мар 2014 08:48:53
Как cкачать  ·  Как раздать  ·  Правильно оформить  ·  Поднять ратио!  
krytek
Стаж: 7 лет 1 мес.
Сообщений: 6
Ratio: 29,215
5.41%
как по мне: самое лучшее аниме, которое я когда-либо видел...
начало нудное и не понятное, но стоит погрузиться и уже не оторвать :респект:
Intruden
Стаж: 9 лет 6 мес.
Сообщений: 71
Ratio: 19,065
100%
russia.gif
krytek писал(а): Перейти к сообщению
как по мне: самое лучшее аниме, которое я когда-либо видел...
начало нудное и не понятное, но стоит погрузиться и уже не оторвать :респект:

Абсолютно согласен! Первые серии просто терпел, но потом так зацепило...
Показать сообщения:   
Начать новую тему   Ответить на тему    Торрент-трекер NNM-Club -> Аниме разное -> Аниме Blu-ray, Remux Часовой пояс: GMT + 3
Страница 1 из 1