Классический форум-трекер
canvas not supported
Нас вместе: 4 094 045

Dee Alexander & Evolution Ensemble Arkestra - A Tribute to James Brown and Jimi Hendrix (2012) [FLAC|Lossless]<Vocal Jazz, Soul, Funk>


 
 
RSS
Начать новую тему   Ответить на тему    Торрент-трекер NNM-Club -> Jazz, Blues, Soul -> Jazz (Lossless)
Автор Сообщение
Doshik ®
Стаж: 9 лет 4 мес.
Сообщений: 1688
Ratio: 43,342
Поблагодарили: 92679
100%
barbados.gif
Dee Alexander & Evolution Ensemble Arkestra - A Tribute to James Brown and Jimi Hendrix (2012)
Год: 2012
Жанр: Vocal Jazz, Soul, Funk
Продолжительность: 01:00:49

Кодек: FLAC (image+.cue + log)
Битрейт: Lossless

Треклист:
01. Announcement Richard Steele (1:12)
02. Star Spangled Banner (0:46)
03. Little Wing (6:19)
04. Manic Depressions (1:51)
05. Machine Gun (3:23)
06. Who Knows (3:43)
07. Fire (3:27)
08. Purple Haze (1:32)
09. All Along the Watchtower (6:28)
10. If 6 Was 9 (4:10)
11. Hey Joe (5:33)
12. I Got the Feeling (6:35)
13. Licking Stick (3:28)
14. Living in America (1:29)
15. Super Bad (5:18)
16. Make It Funky (5:35)
Код:

Exact Audio Copy V1.0 beta 3 from 29. August 2011

EAC extraction logfile from 5. April 2014, 16:42

Dee Alexander / A Tribute to James Brown and Jimi Hendrix

Used drive  : ASUS    DRW-2014S1   Adapter: 0  ID: 1

Read mode               : Secure
Utilize accurate stream : Yes
Defeat audio cache      : Yes
Make use of C2 pointers : No

Read offset correction                      : 6
Overread into Lead-In and Lead-Out          : No
Fill up missing offset samples with silence : Yes
Delete leading and trailing silent blocks   : No
Null samples used in CRC calculations       : Yes
Used interface                              : Native Win32 interface for Win NT & 2000

Used output format              : User Defined Encoder
Selected bitrate                : 896 kBit/s
Quality                         : High
Add ID3 tag                     : No
Command line compressor         : D:\Program Files\Exact Audio Copy\Flac\flac.exe
Additional command line options :  -V -8 -T "Date=%year%" -T "Genre=%genre%" %source%

TOC of the extracted CD

     Track |   Start  |  Length  | Start sector | End sector
    ---------------------------------------------------------
        1  |  0:00.00 |  1:11.58 |         0    |     5382
        2  |  1:11.58 |  0:46.19 |      5383    |     8851
        3  |  1:58.02 |  6:19.32 |      8852    |    37308
        4  |  8:17.34 |  1:50.59 |     37309    |    45617
        5  | 10:08.18 |  3:23.30 |     45618    |    60872
        6  | 13:31.48 |  3:42.64 |     60873    |    77586
        7  | 17:14.37 |  3:27.02 |     77587    |    93113
        8  | 20:41.39 |  1:32.36 |     93114    |   100049
        9  | 22:14.00 |  6:27.59 |    100050    |   129133
       10  | 28:41.59 |  4:09.64 |    129134    |   147872
       11  | 32:51.48 |  5:32.45 |    147873    |   172817
       12  | 38:24.18 |  6:34.44 |    172818    |   202411
       13  | 44:58.62 |  3:27.62 |    202412    |   217998
       14  | 48:26.49 |  1:29.22 |    217999    |   224695
       15  | 49:55.71 |  5:17.46 |    224696    |   248516
       16  | 55:13.42 |  5:35.02 |    248517    |   273643

Range status and errors

Selected range

     Filename D:\Моя музыка\Новая папка (4)\Dee Alexander - A Tribute to James Brown and Jimi Hendrix.wav

     Peak level 100.0 %
     Extraction speed 4.7 X
     Range quality 100.0 %
     Test CRC 521401BF
     Copy CRC 521401BF
     Copy OK

No errors occurred

AccurateRip summary

Track  1  not present in database
Track  2  not present in database
Track  3  not present in database
Track  4  not present in database
Track  5  not present in database
Track  6  not present in database
Track  7  not present in database
Track  8  not present in database
Track  9  not present in database
Track 10  not present in database
Track 11  not present in database
Track 12  not present in database
Track 13  not present in database
Track 14  not present in database
Track 15  not present in database
Track 16  not present in database

None of the tracks are present in the AccurateRip database

End of status report

==== Log checksum BFF9A701FA6CC98D49CB3FCB16A7F904F38C36CA68B0DDCA012C92B1553F763E ====
Код:

-----------------------

DON'T MODIFY THIS FILE

-----------------------

PERFORMER: auCDtect Task Manager, ver. 1.5.1RC6 build 1.5.1.7
Copyright (c) 2008-2010 y-soft. All rights reserved
http://y-soft.org

ANALYZER: auCDtect: CD records authenticity detector, version 0.8.2
Copyright (c) 2004 Oleg Berngardt. All rights reserved.
Copyright (c) 2004 Alexander Djourik. All rights reserved.

FILE: Dee Alexander - A Tribute to James Brown and Jimi Hendrix.flac
  Size: 404595218 Hash: AB8A65E35238D83D18BB055D79F0419F Accuracy: -m8
  Conclusion: CDDA 100%
  Signature: 360D59EAD0C73305060758762A41B56723D92F4F
Время раздачи: 09:00 - 24:00


Поглощение/вытеснение
Только с согласия релизера

Beijing65
[NNM-Club.me]_Dee Alexander - A Tribute to James Brown and Jimi Hendrix.torrent
 Торрент: Платиновая раздача  Зарегистрирован
 
Скачать


Примагнититься
 Зарегистрирован:   05 Апр 2014 16:59:52
 Размер:   386 MB  (
 Рейтинг:   4,7 (Голосов: 10)
 Поблагодарили:   49
 Проверка:   Оформление проверено модератором 06 Апр 2014 10:23:54
Как cкачать  ·  Как раздать  ·  Правильно оформить  ·  Поднять ратио!  
Показать сообщения:   
Начать новую тему   Ответить на тему    Торрент-трекер NNM-Club -> Jazz, Blues, Soul -> Jazz (Lossless) Часовой пояс: GMT + 3
Страница 1 из 1