Классический форум-трекер
canvas not supported
Нас вместе: 4 093 509

Корпорация монстров / Monsters, Inc. (2001) BDRip3D [1080p] [Горизонтальная анаморфная стереопара 3D] [hand made 60fps]


 
 
RSS
Начать новую тему   Ответить на тему    Торрент-трекер NNM-Club -> Мультфильмы -> Зарубежные Мультфильмы (3D)
Автор Сообщение
Tiberiumsun69 ®
Стаж: 6 лет 3 мес.
Сообщений: 1410
Ratio: 116,257
Раздал: 28,86 TB
Поблагодарили: 45052
100%
nnm-club.gif
Корпорация монстров / Monsters, Inc. (2001) BDRip3D [1080p] [Горизонтальная анаморфная стереопара 3D] [hand made 60fps]
Год выпуска: 2001
Жанр: Компьютерная анимация, Комедия, Приключения
Производство: США
Описание:
Склизский гад в сливном бачке, мохнатый зверь, похожий на чудовище из «Аленького цветочка», гигантские мокрицы под кроватью — все они существуют на самом деле. Все, что им нужно — пугать детей, потому что из детских криков они получают электричество.

Полнометражный мультфильм рассказывает о кризисах в мире монстров, их жизни. Но однажды вся мирная жизнь монстров оказывается под угрозой: в их мир попадает ребенок. А с детьми столько хлопот, что они могут довести даже монстров.

Режиссер: Пит Доктер, Дэвид Силверман, Ли Анкрич
Персонажи: Джон Гудман, Билли Кристал, Мэри Гиббс, Стив Бушеми, Джеймс Коберн, Дженнифер Тилли, Боб Питерсон, Джон Ратценбергер, Фрэнк Оз, Дэниел Герсон

Продолжительность: 01:32:09
Качество видео: BDRip3D
Перевод: Дублированный
Язык субтитров: Rus (форс.), Rus (полные), Eng (полные)
Вид субтитров: Вшитые

Видеокодек: MPEG-4 AVC/H.264
Битрейт видео: ~16000 kb/s
Размер кадра: 1920*1032
Аудио 1 Русский: AC3 5.1, 640 kb/s
Аудио 2 Английский: AC3 5.1, 640 kb/s
Сэмпл: Ссылка
Перед скачиванием обязательно проверьте Сэмпл на своем оборудовании.
В 2,5 раза больше кадров!
В 2,5 раза больше исходника (1080p BDrip3D)!
В 2,5 раза плавнее! (59,94 fps)
Приятного просмотра. =)
Общее
Уникальный идентификатор : 197119952894418299865697310964648655994 (0x944BEC07A37CE3CFA0368C8B69A23C7A)
Полное имя : F:\Корпорация монстров (3D).mkv
Формат : Matroska
Версия формата : Version 4 / Version 2
Размер файла : 11,1 Гбайт
Продолжительность : 1 ч. 32 м.
Общий поток : 17,3 Мбит/сек
Дата кодирования : UTC 2014-04-06 05:24:51
Программа кодирования : mkvmerge v6.8.0 ('Theme for Great Cities') 64bit built on Mar 2 2014 21:34:26
Библиотека кодирования : libebml v1.3.0 + libmatroska v1.4.1

Видео
Идентификатор : 1
Формат : AVC
Формат/Информация : Advanced Video Codec
Профиль формата : High@L4.1
Параметр CABAC формата : Да
Параметр ReFrames формата : 5 кадров
Идентификатор кодека : V_MPEG4/ISO/AVC
Продолжительность : 1 ч. 32 м.
Битрейт : 16,0 Мбит/сек
Ширина : 1920 пикселей
Высота : 1032 пикселя
Соотношение сторон : 1,85:1
Режим частоты кадров : Постоянный
Частота кадров : 59,880 кадров/сек
Частота кадров в оригинале : 59,940 кадров/сек
Цветовое пространство : YUV
Субдискретизация насыщенности : 4:2:0
Битовая глубина : 8 бит
Тип развёртки : Прогрессивная
Бит/(Пиксели*Кадры) : 0.135
Размер потока : 10,1 Гбайт (91%)
Библиотека кодирования : x264 core 130 r2273 b3065e6
Настройки программы : cabac=1 / ref=5 / deblock=1:-1:-1 / analyse=0x3:0 / me=umh / subme=9 / psy=1 / psy_rd=1.00:0.10 / mixed_ref=1 / me_range=24 / chroma_me=0 / trellis=1 / 8x8dct=1 / cqm=0 / deadzone=21,11 / fast_pskip=0 / chroma_qp_offset=-3 / threads=6 / lookahead_threads=1 / sliced_threads=0 / nr=0 / decimate=0 / interlaced=0 / bluray_compat=0 / constrained_intra=0 / bframes=5 / b_pyramid=2 / b_adapt=2 / b_bias=0 / direct=3 / weightb=1 / open_gop=0 / weightp=2 / keyint=250 / keyint_min=25 / scenecut=40 / intra_refresh=0 / rc=2pass / mbtree=0 / bitrate=16000 / ratetol=1.0 / qcomp=0.60 / qpmin=0 / qpmax=69 / qpstep=4 / cplxblur=20.0 / qblur=0.5 / ip_ratio=1.40 / pb_ratio=1.30 / aq=1:0.90
Язык : English
Default : Да
Forced : Нет

Аудио #1
Идентификатор : 2
Формат : AC-3
Формат/Информация : Audio Coding 3
Расширение режима : CM (complete main)
Параметр Endianness формата : Big
Идентификатор кодека : A_AC3
Продолжительность : 1 ч. 32 м.
Вид битрейта : Постоянный
Битрейт : 640 Кбит/сек
Каналы : 6 каналов
Расположение каналов : Front: L C R, Side: L R, LFE
Частота : 48,0 КГц
Битовая глубина : 16 бит
Метод сжатия : С потерями
Размер потока : 422 Мбайт (4%)
Заголовок : Dub
Язык : Russian
Default : Да
Forced : Нет

Аудио #2
Идентификатор : 3
Формат : AC-3
Формат/Информация : Audio Coding 3
Расширение режима : CM (complete main)
Параметр Endianness формата : Big
Идентификатор кодека : A_AC3
Продолжительность : 1 ч. 32 м.
Вид битрейта : Постоянный
Битрейт : 640 Кбит/сек
Каналы : 6 каналов
Расположение каналов : Front: L C R, Side: L R, LFE
Частота : 48,0 КГц
Битовая глубина : 16 бит
Метод сжатия : С потерями
Размер потока : 422 Мбайт (4%)
Заголовок : Original
Язык : English
Default : Нет
Forced : Нет

Текст #1
Идентификатор : 4
Формат : UTF-8
Идентификатор кодека : S_TEXT/UTF8
Идентификатор кодека/Информация : UTF-8 Plain Text
Заголовок : Forced
Язык : Russian
Default : Да
Forced : Нет

Текст #2
Идентификатор : 5
Формат : UTF-8
Идентификатор кодека : S_TEXT/UTF8
Идентификатор кодека/Информация : UTF-8 Plain Text
Заголовок : Full
Язык : Russian
Default : Нет
Forced : Нет

Текст #3
Идентификатор : 6
Формат : UTF-8
Идентификатор кодека : S_TEXT/UTF8
Идентификатор кодека/Информация : UTF-8 Plain Text
Заголовок : Full
Язык : English
Default : Нет
Forced : Нет

Меню
00:00:00.000 : :Chapter 01
00:01:33.176 : :Chapter 02
00:03:07.770 : :Chapter 03
00:04:51.416 : :Chapter 04
00:07:17.353 : :Chapter 05
00:09:12.051 : :Chapter 06
00:10:44.226 : :Chapter 07
00:11:54.505 : :Chapter 08
00:17:26.837 : :Chapter 09
00:20:07.289 : :Chapter 10
00:22:05.115 : :Chapter 11
00:25:49.965 : :Chapter 12
00:28:36.673 : :Chapter 13
00:31:08.366 : :Chapter 14
00:34:52.048 : :Chapter 15
00:36:57.840 : :Chapter 16
00:38:52.621 : :Chapter 17
00:40:30.302 : :Chapter 18
00:43:36.905 : :Chapter 19
00:45:32.438 : :Chapter 20
00:48:10.304 : :Chapter 21
00:50:40.203 : :Chapter 22
00:54:44.572 : :Chapter 23
00:57:32.907 : :Chapter 24
01:03:45.863 : :Chapter 25
01:06:29.026 : :Chapter 26
01:07:30.421 : :Chapter 27
01:13:56.557 : :Chapter 28
01:17:54.252 : :Chapter 29
01:21:29.801 : :Chapter 30
01:24:13.006 : :Chapter 31
01:25:11.314 : :Chapter 32
Скриншоты:


Время раздачи: 24/7 до 13.04.2014
Корпорация монстров 3D на NNM-CLUB.ME
[NNM-Club.me]_Korporatsiya monstrov (3D).mkv.torrent
 Торрент: Платиновая раздача  Зарегистрирован
 
Скачать


Примагнититься
 Зарегистрирован:   06 Апр 2014 10:41:30
 Размер:   11,1 GB  (
 Рейтинг:   4,8 (Голосов: 44)
 Поблагодарили:   140
 Проверка:   Оформление проверено модератором 06 Апр 2014 13:51:06
Как cкачать  ·  Как раздать  ·  Правильно оформить  ·  Поднять ратио!  
rogala51
Стаж: 5 лет 10 мес.
Сообщений: 1005
Ratio: 3,946
100%
usa.gif
Добавьте скорости. Спасибо
Tiberiumsun69 ®
Стаж: 6 лет 3 мес.
Сообщений: 1410
Ratio: 116,257
Раздал: 28,86 TB
Поблагодарили: 45052
100%
nnm-club.gif
Дааа.

Надо был мне в воскресенье разом 4 релиза не выкладывать.Приходиться 100 человек раздавать одновременно. :убится ап стену:
Director81
Стаж: 9 лет 6 мес.
Сообщений: 6
Ratio: 7,667
77.27%
russia.gif
Как скачать сэмпл? Мой хром ругается, и я не хочу его расстраивать...
Mimperioli
Стаж: 6 лет 4 мес.
Сообщений: 8
Ratio: 7,603
0%
60 fps ? Серьезно ? Надо было назвать не "HandMade" а "Hand of Asshole". С чего ты вообще решил что это хоть как то смотрибельно ? Ну ладно еще ущербные 60 fps ну блин когда происходят резкие движения на экране изображение же превращается в Цензура ! =(
engineerius
Стаж: 7 лет 10 мес.
Сообщений: 8
Ratio: 42,896
100%
Mimperioli, то вы походу в зеркало смотрели. Отличный релиз! Спасибо!
Показать сообщения:   
Начать новую тему   Ответить на тему    Торрент-трекер NNM-Club -> Мультфильмы -> Зарубежные Мультфильмы (3D) Часовой пояс: GMT + 3
Страница 1 из 1