Классический форум-трекер
canvas not supported
Нас вместе: 4 094 556

Демоны да Винчи / Da Vinci's Demons (2014) HDTVRip [H.264/720p-LQ] [Сезон 2, серии 1-10 из 10] [En\En, Ru Sub]


 
 
RSS
Начать новую тему   Ответить на тему    Торрент-трекер NNM-Club -> Зарубежные сериалы -> Сериалы без перевода
Автор Сообщение
lllod ®
Стаж: 7 лет 7 мес.
Сообщений: 14
Ratio: 8,054
Поблагодарили: 173
15.38%
Демоны да Винчи / Da Vinci's Demons (2014) HDTVRip [H.264/720p-LQ] [Сезон 2, серии 1-10 из 10] [En\En, Ru Sub]
Год выпуска: 2014
Жанр: Драма, Приключения, Псевдоисторический

Перевод: Отсутствует
Язык: Английский
Вид субтитров: Отдельным файлом
Язык субтитров: Русские, Английские

Релиз группа: TVinRussia и ColdFilm



Режиссер: Дэвид С. Гойер, Джейми Пэйн, Пол Уилмсхёрст, Майкл Дж. Бассетт и др.
Актеры: Том Райли, Лаура Хэддок, Блейк Ритсон, Эллиот Кауэн, Лара Пулвер, Грегг Чиллин, Гера Хилмар, Эрос Влахос, Джеймс Фолкнер, Том Бейтман, Александр Сиддиг, Пол Вествуд, Джан Эрик Мэдсен, Джеймс Бриэн и др.

Описание фильма:
Италия, 15 век. 25-летний Леонардо Да Винчи уже стоит на пороге великих открытий, которые опередят свое время и предопределят ход истории. Но он чувствует себя в западне, ведь полет его фантазии противоречит религии, общепринятым нормам, опыту прошлого. Леонардо разрывается между научной истиной и удобной ложью, но сила его могучего интеллекта сметает все преграды на своем пути.
В то же время Леонардо, как и любой другой молодой итальянец, жаждет любви и приключений. Его избранницей становится Лукреция Донати – очаровательная любовница хозяина Флоренции Лоренцо Медичи. Ее соперница – хитроумная интриганка, увлеченная политикой жена Медичи Кларисса Орсини. На стороне Леонардо стоит его наставник Веррокьо.

Продолжительность: ~00:55:00 серия
Качество видео: HDTVRip

Видеокодек: MPEG-4 AVC/H.264
Битрейт видео: ~3000 Kbps
Размер кадра: 1280x720 (16:9)
Аудиокодек: AC3, 6 каналов
Битрейт аудио: 384 Kbps
Все релизы «Демоны да Винчи»

Скриншоты:
22.03.2014 - 2x01 The Blood of Man / Кровь человека
29.03.2014 - 2x02 The Blood of Brothers / Кровь братьев
05.04.2014 - 2x03 The Voyage of the Damned / Путешествие проклятых
12.04.2014 - 2x04 The Ends of the Earth / Края Земли
19.04.2014 - 2x05 The Sun and the Moon / Солнце и Луна
26.04.2014 - 2x06 The Rope of the Dead / Петля мертвеца
03.05.2014 - 2x07 The Vault of Heaven / Небесное Хранилище
10.05.2014 - 2x08 The Fall from Heaven / Падение с небес
17.05.2014 - 2x09 The Enemies of Man / Враги человечества
31.05.2014 - 2x10 The Sins of Daedalus / Грехи Дедала
Общее
Уникальный идентификатор : 121748111361627489838028444238337240458 (0x5B97D5556725415BC524252CBDF76D8A)
Полное имя : D:\Da Vinci's Demons - Season 2 (SUB) HDTV 720p\Da.Vincis.Demons.S02E03.HDTV.720p.mkv
Формат : Matroska
Версия формата : Version 4 / Version 2
Размер файла : 1,21 Гбайт
Продолжительность : 52 м.
Общий поток : 3292 Кбит/сек
Дата кодирования : UTC 2014-04-06 02:09:16
Программа кодирования : mkvmerge v6.0.0 ('Coming Up For Air') built on Jan 20 2013 10:28:01
Библиотека кодирования : libebml v1.3.0 + libmatroska v1.4.0

Видео
Идентификатор : 1
Формат : AVC
Формат/Информация : Advanced Video Codec
Профиль формата : High@L4.1
Параметр CABAC формата : Да
Параметр ReFrames формата : 5 кадров
Идентификатор кодека : V_MPEG4/ISO/AVC
Продолжительность : 52 м.
Битрейт : 2842 Кбит/сек
Ширина : 1280 пикселей
Высота : 720 пикселей
Соотношение сторон : 16:9
Режим частоты кадров : Постоянный
Частота кадров : 23,976 кадра/сек
Цветовое пространство : YUV
Субдискретизация насыщенности : 4:2:0
Битовая глубина : 8 бит
Тип развёртки : Прогрессивная
Бит/(Пиксели*Кадры) : 0.129
Размер потока : 1,04 Гбайт (86%)
Библиотека кодирования : x264 core 142 r2409 d6b4e63
Настройки программы : cabac=1 / ref=5 / deblock=1:0:0 / analyse=0x3:0x113 / me=umh / subme=8 / psy=1 / psy_rd=1.00:0.00 / mixed_ref=1 / me_range=16 / chroma_me=1 / trellis=1 / 8x8dct=1 / cqm=0 / deadzone=21,11 / fast_pskip=1 / chroma_qp_offset=-2 / threads=18 / lookahead_threads=3 / sliced_threads=0 / nr=0 / decimate=1 / interlaced=0 / bluray_compat=0 / constrained_intra=0 / bframes=3 / b_pyramid=2 / b_adapt=2 / b_bias=0 / direct=3 / weightb=1 / open_gop=0 / weightp=2 / keyint=250 / keyint_min=23 / scenecut=40 / intra_refresh=0 / rc_lookahead=50 / rc=crf / mbtree=1 / crf=18.0 / qcomp=0.60 / qpmin=0 / qpmax=69 / qpstep=4 / ip_ratio=1.40 / aq=1:1.00
Язык : English
Default : Да
Forced : Нет
Коэффициенты матрицы : BT.709

Аудио
Идентификатор : 2
Формат : AC-3
Формат/Информация : Audio Coding 3
Расширение режима : CM (complete main)
Параметр Endianness формата : Big
Идентификатор кодека : A_AC3
Продолжительность : 52 м.
Вид битрейта : Постоянный
Битрейт : 384 Кбит/сек
Каналы : 6 каналов
Расположение каналов : Front: L C R, Side: L R, LFE
Частота : 48,0 КГц
Битовая глубина : 16 бит
Метод сжатия : С потерями
Размер потока : 145 Мбайт (12%)
Default : Да
Forced : Нет
Внимание! Раздача ведётся путём добавления новых серий; при каждом добавлении создётся новый торрент. Чтобы начать докачку новой серии, пользователям необходимо сделать следующее:
1) остановить скачивание;
2) удалить старый торрент у себя из клиента (старые серии удалять не надо);
3) скачать новый торрент и запустить его у себя в клиенте вместо старого, при этом указать клиенту путь в старую папку куда и должно происходить скачивание новых серий.
Ваш клиент при этом должен произвести хеширование (проверку) старой папки (если не производит сам - помогите ему сделать это), и будет докачивать только те серии которых у вас ещё нет. Старые серии при этом не удаляются, а продолжают раздаваться!
Eсли вы уже удалили старые серии, то предотвратить повторную закачку старых серий можно, отжав галочку в соответсвующих местах при запуске нового торрента. По возможности, желательно не удалять старые серии как можно дольше чтобы релизёр не столько продолжал раздавать старые серии, а смог сконцентрироваться на новых.
Оригинальные субтитры кроме реплик героев содержат также дублирование различных звуков(выстрелов,звонков,зевки,итд)
Поэтому мы делим переведенные субтитры на 2 типа:
1) по умолчанию (название совпадает с именем видеофайла) эти самые звуки отсутствуют;
2) sdh.sub - здесь же звуки есть и переведены. Эта версия рекомендуется для людей с ослабленным слухом.
В сериале присутствуют ненормативная лексика и сцены с обнажением и/или применением насилия!

Время раздачи: с 10:00 до 21:00
[NNM-Club.me]_Da Vinci's Demons - Season 2 (SUB) HDTV 720p.torrent
 Торрент: Платиновая раздача  Зарегистрирован
 
Скачать


Примагнититься
 Зарегистрирован:   03 Июн 2014 19:00:12
 Размер:   13,5 GB  (
 Рейтинг:   4,6 (Голосов: 55)
 Поблагодарили:   173
 Проверка:   Оформление проверено модератором 03 Июн 2014 19:32:30
Как cкачать  ·  Как раздать  ·  Правильно оформить  ·  Поднять ратио!  
lllod ®
Стаж: 7 лет 7 мес.
Сообщений: 14
Ratio: 8,054
Поблагодарили: 173
15.38%
Добавлена 4 серия. Приятного просмотра!
lllod ®
Стаж: 7 лет 7 мес.
Сообщений: 14
Ratio: 8,054
Поблагодарили: 173
15.38%
Добавлена 5 серия. Приятного просмотра!
megaden13
Стаж: 6 лет 1 мес.
Сообщений: 23
Ratio: 9,955
4.93%
russia.gif
крутой сериал. всем брать!
zeralex
Стаж: 10 лет 10 мес.
Сообщений: 255
Ratio: 1,461
Поблагодарили: 53
100%
Вот из-за таких фильмецов дети будут с полной уверенностью заявлять, что имеют представление об истории человечества.
lllod ®
Стаж: 7 лет 7 мес.
Сообщений: 14
Ratio: 8,054
Поблагодарили: 173
15.38%
zeralex писал(а): Перейти к сообщению
Вот из-за таких фильмецов дети будут с полной уверенностью заявлять, что имеют представление об истории человечества.

Таки сериал псевдоисторический, о чем указано в жанре.
lllod ®
Стаж: 7 лет 7 мес.
Сообщений: 14
Ratio: 8,054
Поблагодарили: 173
15.38%
Добавлена 6 серия. Приятного просмотра!
lllod ®
Стаж: 7 лет 7 мес.
Сообщений: 14
Ratio: 8,054
Поблагодарили: 173
15.38%
Добавлена 7 серия. Приятного просмотра!
lllod ®
Стаж: 7 лет 7 мес.
Сообщений: 14
Ratio: 8,054
Поблагодарили: 173
15.38%
Добавлена 8 серия. Также добавлены две версии субтитров: sdh.sub и обычные. Приятного просмотра!
ZetSnake
Стаж: 9 лет 11 мес.
Сообщений: 59
Ratio: 4,292
100%
уже 9 с переводами вышла...(((
lllod ®
Стаж: 7 лет 7 мес.
Сообщений: 14
Ratio: 8,054
Поблагодарили: 173
15.38%
Добавлены 9-10 серии. Приятного просмотра!
Второй сезон закончен, третий - весной 2015 года.
Mih32
Стаж: 8 лет 2 мес.
Сообщений: 1
Ratio: 1,454
0%
Коллеги! Кто-нибудь, вернитесь на раздачу, пожалуйста!
Показать сообщения:   
Начать новую тему   Ответить на тему    Торрент-трекер NNM-Club -> Зарубежные сериалы -> Сериалы без перевода Часовой пояс: GMT + 3
Страница 1 из 1