Классический форум-трекер
canvas not supported
Нас вместе: 4 079 134

Стрела / Arrow (2013-2014) WEB-DL [H.264/1080p-LQ] (Сезон 2, Серия 1-23 из 23) [Lostfilm]


 
 
RSS
Начать новую тему   Ответить на тему    Торрент-трекер NNM-Club -> Зарубежные сериалы
Автор Сообщение
WOLF 80 ®
Uploader 100+
Стаж: 10 лет 2 мес.
Сообщений: 480
Ratio: 3902,785
Раздал: 156,9 TB
Поблагодарили: 30370
100%
Откуда: Санкт-Петербург
russia.gif
Стрела / Arrow (2013-2014) WEB-DL [H.264/1080p-LQ]
[Сезон 2, Серия 1-23 (23)] [Lostfilm]

Русское название: Стрела
Оригинальное название: Arrow
Год выпуска: 2013-2014
Жанр: Фантастика, Боевик, Приключения

Перевод: Профессиональный многоголосый закадровый - LostFilm




Дата мировой премьеры: с 10.09.2012
Дата российской премьеры: 10.01.2013

Режиссер: Дэвид Баррет, Дэвид Наттер
Актеры: Стивен Амелл, Эмили Бетт Рикардс, Кэти Кэссиди, Уилла Холлэнд, Джейми Шеридан, Жаклин МакИннес Вуд, Колин Сэлмон, Кэтлин Гати, Пол Блекторн, Сюзанна Томпсон

Описание фильма: После масштабных разрушений в Старлинг-сити Оливер Куин вновь уезжает на остров. Его мать в тюрьме, компания на грани поглощения и уничтожения. А в городе орудует банда "капюшонов", расстреливающая финансистов и представителей власти. Диг и Фелисити летят на остров и возвращают Оливера домой. "Капюшон" снова берется за лук и стрелы...
Общее
Уникальный идентификатор : 177243044067069110798810864985187130824 (0x8557C4C2FD718131AF9D093FFA599DC8)
Полное имя : D:\UPLOADED\СЕРИАЛЫ\Arrow.s02.1080p.WEB-DL.LostFilm\01. City of Heroes (Город героев).mkv
Формат : Matroska
Версия формата : Version 4 / Version 2
Размер файла : 1,81 Гбайт
Продолжительность : 42 м.
Общий поток : 6121 Кбит/сек
Название фильма : 01. City of Heroes / Город героев
Дата кодирования : UTC 2014-04-07 09:00:21
Программа кодирования : mkvmerge v6.3.0 ('You can't stop me!') built on Jul 19 2013 16:27:38
Библиотека кодирования : libebml v1.3.0 + libmatroska v1.4.1

Видео
Идентификатор : 1
Формат : AVC
Формат/Информация : Advanced Video Codec
Профиль формата : High@L4.0
Параметр CABAC формата : Да
Параметр ReFrames формата : 4 кадра
Идентификатор кодека : V_MPEG4/ISO/AVC
Продолжительность : 42 м.
Битрейт : 5232 Кбит/сек
Ширина : 1916 пикселей
Высота : 1080 пикселей
Соотношение сторон : 16:9
Режим частоты кадров : Постоянный
Частота кадров : 23,976 кадра/сек
Цветовое пространство : YUV
Субдискретизация насыщенности : 4:2:0
Битовая глубина : 8 бит
Тип развёртки : Прогрессивная
Бит/(Пиксели*Кадры) : 0.105
Размер потока : 1,55 Гбайт (85%)
Заголовок : 01. City of Heroes / Город героев
Язык : English
Default : Да
Forced : Нет
Основные цвета : BT.709
Характеристики трансфера : BT.709
Коэффициенты матрицы : BT.709

Аудио #1
Идентификатор : 2
Формат : AC-3
Формат/Информация : Audio Coding 3
Расширение режима : CM (complete main)
Параметр Endianness формата : Big
Идентификатор кодека : A_AC3
Продолжительность : 42 м.
Вид битрейта : Постоянный
Битрейт : 384 Кбит/сек
Каналы : 2 канала
Расположение каналов : Front: L R
Частота : 48,0 КГц
Битовая глубина : 16 бит
Метод сжатия : С потерями
Размер потока : 116 Мбайт (6%)
Заголовок : Rus Lostfilm.tv
Язык : Russian
Default : Да
Forced : Да

Аудио #2
Идентификатор : 3
Формат : AC-3
Формат/Информация : Audio Coding 3
Расширение режима : CM (complete main)
Параметр Endianness формата : Big
Идентификатор кодека : A_AC3
Продолжительность : 42 м.
Вид битрейта : Постоянный
Битрейт : 384 Кбит/сек
Каналы : 6 каналов
Расположение каналов : Front: L C R, Side: L R, LFE
Частота : 48,0 КГц
Битовая глубина : 16 бит
Метод сжатия : С потерями
Размер потока : 116 Мбайт (6%)
Заголовок : Eng DD5.1
Язык : English
Default : Нет
Forced : Нет
01. City of Heroes / Город героев
02. Identity / Найти себя
03. Broken Dolls / Сломанные куклы
04. Crucible / Тяжёлое испытание
05. League of Assassins / Лига убийц
06. Keep Your Enemies Closer / Держи врагов ближе
07. State vs Queen / Штат против Куинн
08. The Scientist / Учёный
09. Three Ghosts / Три призрака
10. Blast Radius / Радиус поражения
11. Blind Spot / Слепая зона
12. Tremors / Волнения
13. Heir to the Demon / Наследница демона
14. Time of Death / Время смерти
15. The Promise / Обещание
16. Suicide Squad / Отряд самоубийц
17. Birds of Prey / Хищные птицы
18. Deathstroke / Дефстроук
19. The Man Under the Hood / Человек в капюшоне
20. Seeing Red / В ярости
21. City of Blood / Город в крови
22. Streets of Fire / Улицы в огне
23. Unthinkable / Немыслимое

Продолжительность: ~00:43:00 серия
Качество видео: WEB-DL 1080p
Видеокодек: MPEG-4 AVC/H.264
Битрейт видео: ~4800 Кбит/сек
Размер кадра:
1 серия 1916x1080 (16:9), 23,976 fps
2-4 серии 1920x1080 (16:9), 23,976 fps
5-22 серии 1916x1076 (16:9), 23,976 fps
23 серия 1912x1072 (16:9), 23,976 fps
Аудиокодек: AC3
аудио 1: AC-3 at 384 Kbps 2 channels, 48.0 KHz, Профессиональный многоголосый - Lostfilm
аудио 2: AC-3 at 384 Kbps 6 channels, 48.0 KHz, оригинальная дорожка
Стрела / Arrow все раздачи сериала

Скриншоты:

Время Раздачи: 24/7 - круглосуточно
[NNM-Club.me]_Arrow.s02.1080p.WEB-DL.LostFilm.torrent
 Торрент: Платиновая раздача  Зарегистрирован
 
Скачать


Примагнититься
 Зарегистрирован:   17 Май 2014 07:20:17
 Размер:   38,3 GB  (
 Рейтинг:   4,8 (Голосов: 223)
 Поблагодарили:   737
 Проверка:   Оформление проверено модератором 17 Май 2014 08:51:59
Как cкачать  ·  Как раздать  ·  Правильно оформить  ·  Поднять ратио!  

_________________
На первом месте у меня семья и дети, а хобби =>Мои РЕЛИЗЫ <= в свободное от них время
Загрузка...
_salazar_
Стаж: 6 лет 5 мес.
Сообщений: 468
Ratio: 64,465
Поблагодарили: 7059
100%
Откуда: Royal Hell
pirates.png
WOLF 80, спасибо за 1080p! :приветствую:

_________________
AMD FX-8350 4.0Ггц, DDR3 16Gb, HDD 12 Tb, SSD 240 Gb , MSI GeForce GTX 1060 GAMING X — 6 Гб, Windows 7 Ultimate 64 bit, PlayStation 4 1000Gb
go4z
Стаж: 7 лет 2 мес.
Сообщений: 44
Ratio: 0,88
100%
WOLF 80, благодарю
Robar III
Стаж: 4 года 11 мес.
Сообщений: 7
Ratio: 10,609
1.85%
спасибо за 1080p
Masya1983
Стаж: 6 лет
Сообщений: 9
Ratio: 15,863
10.88%
ukraine.gif
станьте на раздачу, плиз
i3laze
Стаж: 8 лет 6 мес.
Сообщений: 6
Ratio: 2,771
0.54%
russia.gif
Интересно, как LostFilm относится к своей раздаче здесь...
Хотя мне повезло найти раздачу тут :)). (У них трекер уже неделю как сломался)
pokkk92
Стаж: 7 лет
Сообщений: 902
Ratio: 6,308
Поблагодарили: 135
100%
Откуда: System32\​Днепропет​ровск​
ukraine.gif
все 4 сезона мучался и смотрел. так как первые пару серий были интересны и было интересно чем же закончится.
Фильм пропитан глупостью и маразмом. Стрелры они руками ловят, от пуль уворачиваются... супер-человек (под миракуру) кулаком прошибает бетонные стены, но главным героям даже гематом не оставляет))
Глупейший сериал что я смотрел за последние пару лет.
ROLEX-SABAN
Стаж: 11 лет 9 мес.
Сообщений: 732
Ratio: 93,904
Поблагодарили: 2721
100%
nnm-club.gif
устал смотреть
StarCinema
Стаж: 7 лет 4 мес.
Сообщений: 491
Ratio: 8,469
Поблагодарили: 36517
100%
pirates.png
а кто-нибудь узнал Дерека Хэмилтона, он сыграл одну из ключевых ролей в компьютерной игре «Need for Speed: Most Wanted» 2005, плохого парня с кличкой — Razor.
Показать сообщения:   
Начать новую тему   Ответить на тему    Торрент-трекер NNM-Club -> Зарубежные сериалы Часовой пояс: GMT + 3
Страница 1 из 1