Классический форум-трекер
canvas not supported
Нас вместе: 4 093 525

Игра престолов / Game of Thrones (2014) HDTVRip (Сезон 4 / Серии 1-10 из 10) Fox


Страницы:  1, 2  След. 
 
RSS
Начать новую тему   Ответить на тему    Торрент-трекер NNM-Club -> Зарубежные сериалы -> Игра престолов / Game of Thrones
Автор Сообщение
DriverV ®
Модератор Сериалов
Uploader 500+
Стаж: 9 лет 6 мес.
Сообщений: 15524
Ratio: 24K
Поблагодарили: 671690
100%
nnm-club.gif
Игра престолов / Game of Thrones (2014) HDTVRip (Сезон 4 / Серии 1-10 из 10) Fox
Год выпуска: 2014
Страна: США, Великобритания
Жанр: фэнтези, драма, приключения

Перевод: Многоголосый закадровый, профессиональный - Fox
Релиз: NovaFilm

Подготовка видео: vadimdexter
Монтаж и работа со звуком: vadimdexter



Режиссер: Дэвид Беньофф, Дэн Вайс, Алекс Грейвз
Актеры: Лена Хиди, Николай Костер-Валдау, Питер Динклейдж, Йен Глен, Эмилия Кларк, Кит Харингтон, Стивен Диллэйн, Лиам Каннингем, Кэрис ван Хаутен, Натали Дормер, Гвендолин Кристи, Ханна Мюррей и др.

Описание фильма:
Гражданская война в Семи королевствах подходит к концу. Один король сражен тенью собственного брата, другой убит на свадьбе, третий царит на море, но на суше он никто. Четвертый по воле Владыки Света отправился к границе, разделяющей мир живых и мертвецов. Пятый же — на Железном троне и готовится к свадьбе и союзу, который навсегда покончит с притязаниями на престол со стороны… Если только не окажутся правдой слухи о последней из рода Таргариенов, ее драконах, воинах-безупречных и их победах в каких-то далеких землях.
Но зима уже на пороге, урожай погиб, а Иные пробудились: одичалые бегут от них к Стене, дозорные — за Стену, и только калека со своими спутниками направляются в самое сердце Севера.

Четвертый сезон Игры престолов поставлен преимущественно по второй половине третьего тома Песни Льда и Пламени («Буря мечей») и отчасти по «Пиру стервятников» и «Танцу с драконами».

Продолжительность: ~01:00:00 серия
Качество видео: HDTVRip

Видеокодек: Xvid
Формат: AVI
Битрейт видео: ~1162 kb/s
Размер кадра: 720х400 (16:9)
Аудио Rus: (MPEG Layer 3, 48,0 kHz, 2 ch, 128 kb/s) - многоголосый закадровый
Аудио Eng: (MPEG Layer 3, 48,0 kHz, 2 ch, 128 kb/s) - оригинал

Сэмпл
Все раздачи "Игра престолов / Game of Thrones"
Общее
Полное имя : D:\Игра престолов (Сезон 4) Game of Thrones (2014) HDTVRip - NovaFilm\game.of.thrones.s04e01.hdtv.rus.eng.novafilm.tv.avi
Формат : AVI
Формат/Информация : Audio Video Interleave
Размер файла : 601 Мбайт
Продолжительность : 58 м.
Общий поток : 1432 Кбит/сек
Программа кодирования : VirtualDubMod 1.5.10.2 (build 2542/release)
Библиотека кодирования : VirtualDubMod build 2542/release

Видео
Идентификатор : 0
Формат : MPEG-4 Visual
Профиль формата : Advanced Simple@L5
Параметр BVOP формата : 1
Параметр QPel формата : Нет
Параметр GMC формата : Без точки перехода
Параметр матрицы формата : Default (MPEG)
Идентификатор кодека : XVID
Идентификатор кодека/Подсказка : XviD
Продолжительность : 58 м.
Битрейт : 1162 Кбит/сек
Ширина : 720 пикселей
Высота : 400 пикселей
Соотношение сторон : 16:9
Частота кадров : 23,976 кадра/сек
Цветовое пространство : YUV
Субдискретизация насыщенности : 4:2:0
Битовая глубина : 8 бит
Тип развёртки : Прогрессивная
Метод сжатия : С потерями
Бит/(Пиксели*Кадры) : 0.168
Размер потока : 488 Мбайт (81%)
Библиотека кодирования : XviD 64

Аудио #1
Идентификатор : 1
Формат : MPEG Audio
Версия формата : Version 1
Профиль формата : Layer 3
Режим : Joint stereo
Расширение режима : MS Stereo
Идентификатор кодека : 55
Идентификатор кодека/Подсказка : MP3
Продолжительность : 58 м.
Вид битрейта : Постоянный
Битрейт : 128 Кбит/сек
Каналы : 2 канала
Частота : 48,0 КГц
Метод сжатия : С потерями
Размер потока : 53,7 Мбайт (9%)
Выравнивание : Соединение по промежуткам
Продолжительность промежутка : 42 мс. (1,00 видеокадр)
Время предзагрузки промежутка : 504 мс.

Аудио #2
Идентификатор : 2
Формат : MPEG Audio
Версия формата : Version 1
Профиль формата : Layer 3
Режим : Joint stereo
Расширение режима : MS Stereo
Идентификатор кодека : 55
Идентификатор кодека/Подсказка : MP3
Продолжительность : 58 м.
Вид битрейта : Постоянный
Битрейт : 128 Кбит/сек
Каналы : 2 канала
Частота : 48,0 КГц
Метод сжатия : С потерями
Размер потока : 53,7 Мбайт (9%)
Выравнивание : Соединение по промежуткам
Продолжительность промежутка : 42 мс. (1,00 видеокадр)
Время предзагрузки промежутка : 504 мс.

01. Two Swords / Два меча
02. The Lion and the Rose / Лев и Роза
03. Breaker of Chains / Разрушительница оков
04. Oathkeeper / Верный клятве
05. First of His Name / Именуемый Первым
06. The Laws of Gods and Men / Законы богов и людей
07. Mockingbird / Пересмешник
08. The Mountain and the Viper / Гора и Змей
09. The Watchers on the Wall / Наблюдатели на стене
10. The Children / Дети
Скриншоты:


Время раздачи: 24/7 - круглосуточно (по возможности)
[NNM-Club.me]_Igra prestolov (Sezon 4) Game of Thrones (2014) HDTVRip - NovaFilm.torrent
 Торрент: Платиновая раздача  Зарегистрирован
 
Скачать


Примагнититься
 Зарегистрирован:   17 Июн 2014 09:37:17
 Размер:   5,81 GB  (
 Рейтинг:   4,5 (Голосов: 305)
 Поблагодарили:   980
 Проверка:   Оформление проверено модератором 17 Июн 2014 09:40:43

Лучшие зарубежные сериалы (без рекламы)
Как cкачать  ·  Как раздать  ·  Правильно оформить  ·  Поднять ратио!  
Slavasavin
Стаж: 7 лет 2 мес.
Сообщений: 305
Ratio: 17,894
100%
Откуда: бывший улус Золотой Орды
russia.gif
Спасибо за раздачу!
Linik00
Стаж: 8 лет 6 мес.
Сообщений: 2
Ratio: 11,517
100%
Спасибо, всё переведено)
Vitl D
Стаж: 8 лет 5 мес.
Сообщений: 29
Ratio: 12,52
100%
russia.gif
Хороший сериальчик.Ждал.Спасибо.
rais43
Стаж: 9 лет 4 мес.
Сообщений: 108
Ratio: 285,859
Раздал: 24,22 TB
100%
Откуда: С уральских гор Мы тоже горцы
russia.gif
спасибо дождались

_________________
надо чёто написать CD тихо не DVD меня
st-MK
Стаж: 9 лет 8 мес.
Сообщений: 608
Ratio: 1,971
100%
pirates.png
Если кому-то нужны английские сабы, эти подходят.
drus666
Стаж: 9 лет 4 мес.
Сообщений: 4
Ratio: 5,161
100%
Очень ждал, Благодарю!!!
Yaroslavskey
Стаж: 9 лет 1 мес.
Сообщений: 4
Ratio: 11,393
0.21%
Ждал, спасибо
efrit1
Стаж: 9 лет 2 мес.
Сообщений: 54
Ratio: 2,391
Поблагодарили: 3
27.23%
Ура, товарищи!!! Мы пережили зиму и дождались любимого сериала!!! Вот бы ещё перевод от лоста, хотя это уже на любителя.
Niymi
Стаж: 7 лет 3 мес.
Сообщений: 12
Ratio: 594,008
100%
efrit1 писал(а): Перейти к сообщению
Ура, товарищи!!! Мы пережили зиму и дождались любимого сериала!!! Вот бы ещё перевод от лоста, хотя это уже на любителя.

Книга наааамного интереснее :)

P.S. Интересно, в сериале будут "мочить в сортире" как в книге, или преподнесут данную сцену в другом виде? Не буду говорить кто и кого :)
sergoA74
Стаж: 9 лет 6 мес.
Сообщений: 1
Ratio: 9,791
0.38%
russia.gif
погнали!!!
rais43
Стаж: 9 лет 4 мес.
Сообщений: 108
Ratio: 285,859
Раздал: 24,22 TB
100%
Откуда: С уральских гор Мы тоже горцы
russia.gif
Ребята вот бы график выхода серий :смущение: :смущение: :поклоняется: :поклоняется:

Добавлено спустя 4 минуты 12 секунд:
Серия 1: Два меча (Two Swords) (06.04.2014)
Серия 2: Лев и Роза (The Lion and the Rose) (13.04.2014)
Серия 3: Разрушительница оков (Breaker of Chains) (20.04.2014)
Серия 4: Верный клятве (Oathkeeper) (27.04.2014)
Серия 5: Первый этого имени (First of His Name) (04.05.2014)
Серия 6: Законы богов и людей (The Laws of Gods and Men) (11.05.2014)
Серия 7: Пересмешник (Mockingbird) (18.05.2014)
Серия 8: Гора и Змей (The Mountain and the Viper) (примерно 1.06.2014)
Серия 9: Дозорные на Стене (The watchers on the Wall) (примерно 8.06.2014)
Серия 10: Дети (The Children) (примерно 15.06.2014)

_________________
надо чёто написать CD тихо не DVD меня
20971
Стаж: 10 лет
Сообщений: 217
Ratio: 22,983
100%
Откуда: Одесса
india.gif
Огромное спасибо!!!!!!

_________________
Дурная мысль подобна гвоздю.Её легко забить но трудно вытащить...Ничто не вызывает такой сильной паники, как крик "Только без паники!"...
Niymi
Стаж: 7 лет 3 мес.
Сообщений: 12
Ratio: 594,008
100%
rais43 писал(а): Перейти к сообщению

Серия 2: Лев и Роза (The Lion and the Rose) (13.04.2014)
Серия 8: Гора и Змей (The Mountain and the Viper) (примерно 1.06.2014)

Мда.... Похоже сериал решили капитальная затянуть. Следуя тенденции - будет еще по 2 сезона на 4 и 5 книги, как минимум.
rais43
Стаж: 9 лет 4 мес.
Сообщений: 108
Ratio: 285,859
Раздал: 24,22 TB
100%
Откуда: С уральских гор Мы тоже горцы
russia.gif
оперативно спасибо

_________________
надо чёто написать CD тихо не DVD меня
Показать сообщения:   
Начать новую тему   Ответить на тему    Торрент-трекер NNM-Club -> Зарубежные сериалы -> Игра престолов / Game of Thrones Часовой пояс: GMT + 3
Страницы:  1, 2  След.
Страница 1 из 2