Классический форум-трекер
canvas not supported
Нас вместе: 4 095 110

Игра престолов / Game of Thrones (2014) HDTVRip [720p] (Сезон 4 / Серии 1-10 из 10) Fox


Страницы:  1, 2, 3  След. 
 
RSS
Начать новую тему   Ответить на тему    Торрент-трекер NNM-Club -> Зарубежные сериалы -> Игра престолов / Game of Thrones
Автор Сообщение
DriverV ®
Модератор Сериалов
Uploader 500+
Стаж: 9 лет 6 мес.
Сообщений: 15533
Ratio: 24K
Поблагодарили: 672517
100%
nnm-club.gif
Игра престолов / Game of Thrones (2014) HDTVRip [720p](Сезон 4 / Серии 1-10 из 10) Fox
Год выпуска: 2014
Страна: США, Великобритания
Жанр: фэнтези, драма, приключения

Перевод: Многоголосый закадровый, профессиональный - Fox
Релиз: NovaFilm

Монтаж и работа со звуком: vadimdexter



Режиссер: Дэвид Беньофф, Дэн Вайс, Алекс Грейвз
Актеры: Лена Хиди, Николай Костер-Валдау, Питер Динклейдж, Йен Глен, Эмилия Кларк, Кит Харингтон, Стивен Диллэйн, Лиам Каннингем, Кэрис ван Хаутен, Натали Дормер, Гвендолин Кристи, Ханна Мюррей и др.

Описание фильма:
Гражданская война в Семи королевствах подходит к концу. Один король сражен тенью собственного брата, другой убит на свадьбе, третий царит на море, но на суше он никто. Четвертый по воле Владыки Света отправился к границе, разделяющей мир живых и мертвецов. Пятый же — на Железном троне и готовится к свадьбе и союзу, который навсегда покончит с притязаниями на престол со стороны… Если только не окажутся правдой слухи о последней из рода Таргариенов, ее драконах, воинах-безупречных и их победах в каких-то далеких землях.
Но зима уже на пороге, урожай погиб, а Иные пробудились: одичалые бегут от них к Стене, дозорные — за Стену, и только калека со своими спутниками направляются в самое сердце Севера.

Четвертый сезон Игры престолов поставлен преимущественно по второй половине третьего тома Песни Льда и Пламени («Буря мечей») и отчасти по «Пиру стервятников» и «Танцу с драконами».

Продолжительность: ~01:00:00 серия
Качество видео: HDTVRip 720p

Видеокодек: AVC
Формат: MKV
Битрейт видео: ~3300 kb/s
Размер кадра: 1280x714 (16:9)
Аудио Rus: (AC-3, 48,0 kHz, 2 ch, 192 kb/s) - многоголосый закадровый
Аудио Eng: (AC-3, 48,0 kHz, 6 ch, 384 kb/s) - оригинал

Сэмпл
Все раздачи "Игра престолов / Game of Thrones"
Общее
Уникальный идентификатор : 185351250329089612142522394144612786227 (0x8B715A31E52DEAF38ED4D84F9F5BA033)
Полное имя : D:\Игра престолов (Сезон 4) Game of Thrones (2014) HDTVRip 720p - NovaFilm\game.of.thrones.s04e01.hdtv.720p.rus.eng.novafilm.tv.mkv
Формат : Matroska
Версия формата : Version 4 / Version 2
Размер файла : 1,63 Гбайт
Продолжительность : 58 м.
Общий поток : 3977 Кбит/сек
Дата кодирования : UTC 2014-04-07 22:59:54
Программа кодирования : mkvmerge v6.8.0 ('Theme for Great Cities') 32bit built on Mar 2 2014 21:27:07
Библиотека кодирования : libebml v1.3.0 + libmatroska v1.4.1

Видео
Идентификатор : 1
Формат : AVC
Формат/Информация : Advanced Video Codec
Профиль формата : High@L4.1
Параметр CABAC формата : Да
Параметр ReFrames формата : 9 кадров
Идентификатор кодека : V_MPEG4/ISO/AVC
Продолжительность : 58 м.
Битрейт : 3322 Кбит/сек
Ширина : 1280 пикселей
Высота : 714 пикселей
Соотношение сторон : 16:9
Режим частоты кадров : Постоянный
Частота кадров : 23,976 кадра/сек
Цветовое пространство : YUV
Субдискретизация насыщенности : 4:2:0
Битовая глубина : 8 бит
Тип развёртки : Прогрессивная
Бит/(Пиксели*Кадры) : 0.152
Размер потока : 1,36 Гбайт (84%)
Библиотека кодирования : x264 core 142 r2389 956c8d8
Настройки программы : cabac=1 / ref=9 / deblock=1:-3:-3 / analyse=0x3:0x133 / me=umh / subme=9 / psy=1 / psy_rd=1.00:0.00 / mixed_ref=1 / me_range=16 / chroma_me=1 / trellis=2 / 8x8dct=1 / cqm=0 / deadzone=21,11 / fast_pskip=1 / chroma_qp_offset=-2 / threads=6 / lookahead_threads=1 / sliced_threads=0 / nr=0 / decimate=1 / interlaced=0 / bluray_compat=0 / constrained_intra=0 / bframes=7 / b_pyramid=2 / b_adapt=2 / b_bias=0 / direct=3 / weightb=1 / open_gop=0 / weightp=2 / keyint=250 / keyint_min=23 / scenecut=40 / intra_refresh=0 / rc_lookahead=60 / rc=crf / mbtree=1 / crf=17.0 / qcomp=0.60 / qpmin=0 / qpmax=69 / qpstep=4 / ip_ratio=1.40 / aq=1:1.00
Язык : English
Default : Нет
Forced : Нет

Аудио #1
Идентификатор : 2
Формат : AC-3
Формат/Информация : Audio Coding 3
Расширение режима : CM (complete main)
Параметр Endianness формата : Big
Идентификатор кодека : A_AC3
Продолжительность : 58 м.
Вид битрейта : Постоянный
Битрейт : 192 Кбит/сек
Каналы : 2 канала
Расположение каналов : Front: L R
Частота : 48,0 КГц
Битовая глубина : 16 бит
Метод сжатия : С потерями
Размер потока : 80,6 Мбайт (5%)
Язык : Russian
Default : Да
Forced : Нет

Аудио #2
Идентификатор : 3
Формат : AC-3
Формат/Информация : Audio Coding 3
Расширение режима : CM (complete main)
Параметр Endianness формата : Big
Идентификатор кодека : A_AC3
Продолжительность : 58 м.
Вид битрейта : Постоянный
Битрейт : 384 Кбит/сек
Каналы : 6 каналов
Расположение каналов : Front: L C R, Side: L R, LFE
Частота : 48,0 КГц
Битовая глубина : 16 бит
Метод сжатия : С потерями
Задержка видео : 30 мс.
Размер потока : 161 Мбайт (10%)
Язык : English
Default : Нет
Forced : Нет

01. Two Swords / Два меча
02. The Lion and the Rose / Лев и Роза
03. Breaker of Chains / Разрушительница оков
04. Oathkeeper / Верный клятве
05. First of His Name / Именуемый Первым
06. The Laws of Gods and Men / Законы богов и людей
07. Mockingbird / Пересмешник
08. The Mountain and the Viper / Гора и Змей
09. The Watchers on the Wall / Наблюдатели на стене
10. The Children / Дети
Скриншоты:


Время раздачи: 24/7 - круглосуточно (по возможности)
[NNM-Club.me]_Igra prestolov (Sezon 4) Game of Thrones (2014) HDTVRip 720p - NovaFilm.torrent
 Торрент: Платиновая раздача  Зарегистрирован
 
Скачать


Примагнититься
 Зарегистрирован:   17 Июн 2014 09:08:41
 Размер:   21,2 GB  (
 Рейтинг:   4,3 (Голосов: 417)
 Поблагодарили:   1339
 Проверка:   Оформление проверено модератором 17 Июн 2014 09:14:42

Лучшие зарубежные сериалы (без рекламы)
Как cкачать  ·  Как раздать  ·  Правильно оформить  ·  Поднять ратио!  
lulutoys
Стаж: 5 лет 11 мес.
Сообщений: 17
Ratio: 32,942
Поблагодарили: 77
100%
russia.gif
Спасибо ОГРОМНОЕ!!!!Долго ждала-ждала и дождалась) Самый офигенные сериал!
tolstov83
Стаж: 8 лет 3 мес.
Сообщений: 32
Ratio: 1,981
Раздал: 1,148 TB
12.83%
Не смотрел в фоксе, как перевод?, не хуже лостфильма???
aduard72
RG Music
Спонсор Клуба
 
Стаж: 7 лет 4 мес.
Сообщений: 2180
Ratio: 140,668
Раздал: 44,82 TB
Поблагодарили: 142388
100%
ussr.gif
Вот это подарок . Спасибо !

_________________
KoDi273
Стаж: 9 лет 1 мес.
Сообщений: 38
Ratio: 5,644
100%
тему про игры на форуме лоста закрыли, комментарии к последней серии третьего сезона удалили и отключили. Я понял это как полный игнор пользователей. Могли бы просто написать будут или не будут переводить. Скачаю этот перевод.
koloon
 
Стаж: 8 лет 2 мес.
Сообщений: 147
Ratio: 97,69
Поблагодарили: 67
100%
nnm-club.gif
Перевод вполне сносный, но конечно неполный.
Я вот чего не пойму, а почему оба брата Ланистеры перестали быть блондинами?
zezya84
Стаж: 9 лет 2 мес.
Сообщений: 45
Ratio: 3,509
100%
Откуда: Волгоград
ДААААААА !!!! дождался !!! Спасибо !!!! Качество норм !!!!!
Kostyas
Стаж: 9 лет 8 мес.
Сообщений: 13
Ratio: 2,173
0.69%
russia.gif
Только после прочтения саги "Песнь Льда и Огня" Д.Мартина ,можно смело приступать к просмотру данного сериала. Тем ,кто пытается понять все перепетии событий затрагивающих большое количество лет,событий,понять характеры и поступки огромного количества людей,просто лицезрея сериал-пустая трата времени или просто просмотр шикарного видеоряда,без глубины понимания сути процессов заложенных Дж.Мартином.
В сериале вы не поймете разницу между Вестеросом и Эссесом,между Югом и Севером,между Таргариенами, Ланистерами и Старками.
Прочтите- не пожалеете.

P.S.Единственный минус- это обилие секса, которого и близко нет в книге, на потребу маргиналам и кассовым сборам.
samokat666
Стаж: 7 лет 4 мес.
Сообщений: 135
Ratio: 15,522
Поблагодарили: 37
100%
Откуда: Саратов
russia.gif
Kostyas

Полностью поддерживаю. Не знаете книга когда допишется очередная.
telix-urban
Стаж: 10 лет 9 мес.
Сообщений: 104
Ratio: 4,073
Раздал: 4,119 TB
75%
Откуда: Питер
russia.gif
Просто - Спасибо!
FreeMarksman
Стаж: 9 лет
Сообщений: 1215
Ratio: 22,811
Поблагодарили: 296
87.59%
ussr.gif
Свершилось! УРАА!
ComconX
Стаж: 10 лет 1 мес.
Сообщений: 9
Ratio: 72,453
100%
russia.gif
вышел перевод от Лоста. Интересно, будет ли от Алексов.
Wasil5701
Стаж: 9 лет 10 мес.
Сообщений: 47
Ratio: 0,829
0.53%
Чё народ с ума сходит? стоит ли НАЧИНАТЬ смотреть энтот сериал или как? Последний сериал, который я посмотрел полностью - это "Во все тяжкие"
Niymi
Стаж: 7 лет 3 мес.
Сообщений: 12
Ratio: 594,008
100%
Помимо обилия секса, еще очень многое из книги было вырезано, либо очень сильно изменено в сериале. Как по мне - почти все изменения в худшую сторону.
Книга в сотни раз интереснее.
Spridjazz
Стаж: 10 лет
Сообщений: 1
Ratio: 2,36
25%
Wasil5701 писал(а): Перейти к сообщению
Чё народ с ума сходит? стоит ли НАЧИНАТЬ смотреть энтот сериал или как? Последний сериал, который я посмотрел полностью - это "Во все тяжкие"
смотри !!! не пожалеешь :супер!:
Показать сообщения:   
Начать новую тему   Ответить на тему    Торрент-трекер NNM-Club -> Зарубежные сериалы -> Игра престолов / Game of Thrones Часовой пояс: GMT + 3
Страницы:  1, 2, 3  След.
Страница 1 из 3