Классический форум-трекер
canvas not supported
Нас вместе: 4 094 979

VA - Power Of Soul A Tribute To Jimi Hendrix (2004) [FLAC|Lossless]<Rock>


 
 
RSS
Начать новую тему   Ответить на тему    Торрент-трекер NNM-Club -> Rock, Alternative, Punk, Metal -> Rock (Lossless)
Автор Сообщение
Doshik ®
Стаж: 9 лет 5 мес.
Сообщений: 1688
Ratio: 43,23
Поблагодарили: 92697
100%
barbados.gif
VA - Power Of Soul A Tribute To Jimi Hendrix (2004)
Год: 2004
Жанр: Rock
Продолжительность: 01:13:19
Лейбл: Image Entertainment
Каталог: B0001XAQ9G

Кодек: FLAC (image+.cue + log)
Битрейт: Lossless

Треклист:
01. James 'Al' Hendrix - Gratitude (0:18)
02. Musiq - Are You Experienced? (4:24)
03. Santana - Spanish Castle Magic (4:09)
04. Prince - Purple House (3:39)
05. Sting - The Wind Cries Mary (4:32)
06. Earth Wind & Fire - Voodoo Child(Slight Return) (3:38)
07. Bootsy Collins featuring George Clinton & the P-Funk All-Stars - Power Of Soul (4:48)
08. Eric Clapton - Burning Of The Midnight Lamp (4:24)
09. Lenny Kravitz - Have You Ever Been(To Electric Ladyland) (3:08)
10. James 'Al' Hendrix - 30 Years (0:14)
11. Devoted Spirits featuring George Duke - Who Knows (3:17)
12. Robert Randolph & The Family Band - Purple Haze (4:37)
13. Velvert Turner - Going Home (0:43)
14. Chaka Khan & Kenny Olson - Little Wing (3:41)
15. Sounds Of Blackness - Castles Made Of Sand (3:06)
16. Eric Gales - May This Be Love (4:27)
17. Cee-Lo - Foxy Lady (3:41)
18. John Lee Hooker - Red House (4:05)
19. Stevie Ray Vaughan & Double Trouble - Little Wing,3rd Stone From The Sun (12:29)
Код:

Exact Audio Copy V0.99 prebeta 4 from 23. January 2008

Отчёт EAC об извлечении, выполненном 31. июля 2009, 11:51

Various / Power Of Soul: A Tribute To Jimi Hendrix

Дисковод: Optiarc DVD RW AD-7203S   Adapter: 1  ID: 1

Режим чтения                 : Достоверность
Использование точного потока : Да
Отключение кэша аудио        : Да
Использование указателей C2  : Нет

Коррекция смещения при чтении                     : 48
Способность читать области Lead-in и Lead-out     : Нет
Заполнение пропущенных сэмплов тишиной            : Да
Удаление блоков с тишиной в начале и конце        : Нет
При вычислениях CRC использовались нулевые сэмплы : Да
Интерфейс                                         : Встроенный Win32-интерфейс для Win NT/2000

Выходной формат          : Пользовательский кодировщик
Выбранный битрейт        : 1024 kBit/s
Качество                 : Высокий
Добавление ID3-тэга      : Нет
Утилита сжатия           : C:\Program Files\Exact Audio Copy\Flac\flac.exe
Дополнительные параметры : -V -8 -T "artist=%a" -T "title=%t" -T "album=%g" -T "date=%y" -T "tracknumber=%n" -T "genre=%m" %s

TOC извлечённого CD

     Трек |   Старт  | Длительность | Начальный сектор | Конечный сектор
    ---------------------------------------------------------------------
       1  |  0:00.00 |    0:18.06   |           0      |       1355
       2  |  0:18.06 |    4:23.38   |        1356      |      21118
       3  |  4:41.44 |    4:09.37   |       21119      |      39830
       4  |  8:51.06 |    3:39.04   |       39831      |      56259
       5  | 12:30.10 |    4:31.74   |       56260      |      76658
       6  | 17:02.09 |    3:38.08   |       76659      |      93016
       7  | 20:40.17 |    4:48.05   |       93017      |     114621
       8  | 25:28.22 |    4:23.42   |      114622      |     134388
       9  | 29:51.64 |    3:08.34   |      134389      |     148522
      10  | 33:00.23 |    0:13.38   |      148523      |     149535
      11  | 33:13.61 |    3:16.51   |      149536      |     164286
      12  | 36:30.37 |    4:37.14   |      164287      |     185075
      13  | 41:07.51 |    0:43.36   |      185076      |     188336
      14  | 41:51.12 |    3:40.38   |      188337      |     204874
      15  | 45:31.50 |    3:06.17   |      204875      |     218841
      16  | 48:37.67 |    4:26.74   |      218842      |     238865
      17  | 53:04.66 |    3:40.48   |      238866      |     255413
      18  | 56:45.39 |    4:04.66   |      255414      |     273779
      19  | 60:50.30 |   12:28.57   |      273780      |     329936

Характеристики диапазона извлечения и сообщения об ошибках

Выбранный диапазон

     Имя файла D:\EAC-FOLDER\2004-VA — Power Of Soul  A Tribute To Jimi Hendrix\2004-VA — Power Of Soul  A Tribute To Jimi Hendrix\Various - Power Of Soul  A Tribute To Jimi Hendrix.wav

     Пиковый уровень 100.0 %
     Качество диапазона 100.0 %
     CRC теста 5AF19FA2
     CRC копии 5AF19FA2
     Копирование... OK

Ошибок не произошло

AccurateRip: сводка

Трек  1  точное извлечение (доверие 4)  [66DB327D]
Трек  2  точное извлечение (доверие 4)  [084CCB08]
Трек  3  точное извлечение (доверие 4)  [B1CC9439]
Трек  4  точное извлечение (доверие 4)  [39E618E6]
Трек  5  точное извлечение (доверие 4)  [BA472749]
Трек  6  точное извлечение (доверие 4)  [BB6E9022]
Трек  7  точное извлечение (доверие 4)  [90457586]
Трек  8  точное извлечение (доверие 4)  [ED1F6D11]
Трек  9  точное извлечение (доверие 4)  [978220F8]
Трек 10  точное извлечение (доверие 4)  [18029255]
Трек 11  точное извлечение (доверие 4)  [18C8D7FD]
Трек 12  точное извлечение (доверие 4)  [D8F083DA]
Трек 13  точное извлечение (доверие 4)  [71A1EF00]
Трек 14  точное извлечение (доверие 4)  [D9427911]
Трек 15  точное извлечение (доверие 4)  [81FD6CC8]
Трек 16  точное извлечение (доверие 4)  [E9ABBA26]
Трек 17  точное извлечение (доверие 4)  [5BA14019]
Трек 18  точное извлечение (доверие 4)  [7300CF7B]
Трек 19  точное извлечение (доверие 4)  [4A7C2874]

Все треки извлечены точно

Конец отчёта
Код:

-----------------------

DON'T MODIFY THIS FILE

-----------------------

PERFORMER: auCDtect Task Manager, ver. 1.5.1RC6 build 1.5.1.7
Copyright (c) 2008-2010 y-soft. All rights reserved
http://y-soft.org

ANALYZER: auCDtect: CD records authenticity detector, version 0.8.2
Copyright (c) 2004 Oleg Berngardt. All rights reserved.
Copyright (c) 2004 Alexander Djourik. All rights reserved.

FILE: Various - Power Of Soul  A Tribute To Jimi Hendrix.flac
  Size: 520368776 Hash: 4C86D1C077F16AADBCCA13D8210E9524 Accuracy: -m8
  Conclusion: CDDA 100%
  Signature: DC0BD5D50AE917F0E510531193BFCC9B0D987BBF
Время раздачи: 09:00 - 24:00


Поглощение/вытеснение
Только с согласия релизера

Bigbeer
[NNM-Club.me]_Power Of Soul A Tribute To Jimi Hendrix.torrent
 Торрент: Платиновая раздача  Зарегистрирован
 
Скачать


Примагнититься
 Зарегистрирован:   08 Апр 2014 10:39:10
 Размер:   505 MB  (
 Рейтинг:   4,8 (Голосов: 13)
 Поблагодарили:   47
 Проверка:   Оформление проверено модератором 08 Апр 2014 15:14:27
Как cкачать  ·  Как раздать  ·  Правильно оформить  ·  Поднять ратио!  
Показать сообщения:   
Начать новую тему   Ответить на тему    Торрент-трекер NNM-Club -> Rock, Alternative, Punk, Metal -> Rock (Lossless) Часовой пояс: GMT + 3
Страница 1 из 1