Классический форум-трекер
canvas not supported
Нас вместе: 4 094 986

Квартет И - Ля Комедия - 2, или совсем другая история (2006) DVDRip


 
 
RSS
Начать новую тему   Ответить на тему    Торрент-трекер NNM-Club -> Театр и Музыкальное видео -> Опера, Балет, Мюзиклы
Автор Сообщение
scsibes ®
Стаж: 12 лет 2 мес.
Сообщений: 31
Ratio: 3,753
Поблагодарили: 1078
100%
Откуда: Dnepr
ukraine.gif
Квартет И - Ля Комедия - 2, или совсем другая история (2006) DVDRip
Жанр: Театральная Комедия

Режиссер: Эдуард Радзюкевич
Актеры: Камиль Ларин, Александр Демидов, Леонид Барац, Эмилия Савельева, Ростислав Хаит, Эмилия Савельева, Анна Касаткина, Эдуард Радзюкевич, Александр Жигалкин

Описание:
Произведение в 2-х частях для театра с оркестром по мотивам комедии Эжена Лабиша "Милейший Селимар"

Продолжительность: 02:32:58
Качество видео: DVDRip

Видео: XviD, 448x336 (1.33:1), ~1143 Kbps
Аудио: MP3, 48 kHz, 2 ch, 128 Kbps
Общее
Полное имя : КвартетИ_ЛЯ_КОМЕДИЯ_2.avi
Формат : AVI
Формат/Информация : Audio Video Interleave
Размер файла : 1,37 Гбайт
Продолжительность : 2 ч. 32 м.
Общий поток : 1279 Кбит/сек
Программа кодирования : VirtualDubMod 1.5.4.1 (build 2178/release)
Библиотека кодирования : VirtualDubMod build 2178/release

Видео
Идентификатор : 0
Формат : MPEG-4 Visual
Профиль формата : Advanced Simple@L5
Настройки формата : BVOP1 / Custom Matrix
Параметр BVOP формата : 1
Параметр QPel формата : Нет
Параметр GMC формата : Без точки перехода
Параметр матрицы формата : Выборочная
Идентификатор кодека : XVID
Идентификатор кодека/Подсказка : XviD
Продолжительность : 2 ч. 32 м.
Битрейт : 1143 Кбит/сек
Ширина : 448 пикселей
Высота : 336 пикселей
Соотношение сторон : 4:3
Частота кадров : 25,000 кадров/сек
Цветовое пространство : YUV
Субдискретизация насыщенности : 4:2:0
Битовая глубина : 8 бит
Тип развёртки : Прогрессивная
Метод сжатия : С потерями
Бит/(Пиксели*Кадры) : 0.304
Размер потока : 1,22 Гбайт (89%)
Библиотека кодирования : XviD 1.2.0.dev47 (UTC 2006-11-01)

Аудио
Идентификатор : 1
Формат : MPEG Audio
Версия формата : Version 1
Профиль формата : Layer 3
Настройки формата : Joint stereo / MS Stereo
Идентификатор кодека : 55
Идентификатор кодека/Подсказка : MP3
Продолжительность : 2 ч. 32 м.
Вид битрейта : Постоянный
Битрейт : 128 Кбит/сек
Каналы : 2 канала
Частота : 48,0 КГц
Частота кадров : 41,667 кадра/сек (1152 SPF)
Метод сжатия : С потерями
Размер потока : 140 Мбайт (10%)
Выравнивание : Соединение по промежуткам
Продолжительность промежутка : 80 мс. (2,00 видеокадра)
Время предзагрузки промежутка : 504 мс.
Библиотека кодирования : LAME3.97
Настройки программы : -m j -V 4 -q 2 -lowpass 17 -b 128
Язык : Russian
Скриншоты:


Все раздачи и части спектакля "Квартет И - Ля Комедия" в Клубе

Время раздачи: 24/7 - круглосуточно
kvartet.torrent
 Торрент: Платиновая раздача  Зарегистрирован
 
Скачать


Примагнититься
 Зарегистрирован:   03 Янв 2020 22:32:19
 Размер:   1,37 GB  (
 Рейтинг:   4,8 (Голосов: 94)
 Поблагодарили:   513
 Проверка:   Оформление проверено модератором 05 Янв 2020 19:10:49
Как cкачать  ·  Как раздать  ·  Правильно оформить  ·  Поднять ратио!  
darkinnos​entsoul​
Стаж: 12 лет
Сообщений: 5
Ratio: 1,493
0%
огромное спасибо!!!!!
t-push
Стаж: 11 лет 11 мес.
Сообщений: 135
Ratio: 10,231
Раздал: 2,102 TB
Поблагодарили: 245
100%
Спасибо!! :клево:
cdalf
Стаж: 13 лет 4 мес.
Сообщений: 46
Ratio: 5,864
100%
russia.gif
Спасибо! А есть, что нибудь новенькое, из квартета-И???
PabloFS
Стаж: 11 лет 10 мес.
Сообщений: 17
Ratio: 1,789
Поблагодарили: 510
100%
Откуда: Сочи
russia.gif
Я вчера и сегодня выложил ещё две постановки. Попозже ещё две выложу.
hant
Стаж: 10 лет 9 мес.
Сообщений: 33
Ratio: 4,764
100%
Откуда: Ishimbay
russia.gif
Может кто сборник "квартета и" сделает? Потребность - большая.

_________________
HANT
Pyliah
олд-пенсионер
Стаж: 10 лет 9 мес.
Сообщений: 19638
Ratio: 225,963
Поблагодарили: 148955
100%
Откуда: Україна
ukraine.gif
hant
спектаклей именно?
lokis74
Стаж: 9 лет 8 мес.
Сообщений: 20
Ratio: 6,299
Поблагодарили: 264
100%
Откуда: Тверь
russia.gif
Да неплохо бы полное собрание произведений Квартета И сделать. Скачал бы с удовольствием. Самому бог таланта не дал.
arjangel1972
Стаж: 9 лет 4 мес.
Сообщений: 1
37.5%
ukraine.gif
Большущее спасибо. Буду ждать новые трекеры :супер!:
didikin
Uploaders
 
Стаж: 12 лет 6 мес.
Сообщений: 422
Ratio: 80,692
Раздал: 39,05 TB
Поблагодарили: 357
100%
ussr.gif
на раздаче

_________________
жена: как может быть торрент скачан 28 тыс раз и ни одного сида?
snake: то фильм про японскую девочку, все кто его посмотрел - умерли.
СтеклышеК
DJ Настроения
 
Стаж: 9 лет 8 мес.
Сообщений: 1330
Ratio: 72,123
Раздал: 7,358 TB
Поблагодарили: 1741
100%
Откуда: с Вологодской губернии
ussr.gif

_________________

214я игра завершена! Поздравляем победителя!
Показать сообщения:   
Начать новую тему   Ответить на тему    Торрент-трекер NNM-Club -> Театр и Музыкальное видео -> Опера, Балет, Мюзиклы Часовой пояс: GMT + 3
Страница 1 из 1