Классический форум-трекер
canvas not supported
Нас вместе: 4 094 406

Игра престолов / Game of Thrones (2014) HDTVRip [720p] (Сезон 4 / Серии 1-10 из 10) AlexFilm


Страницы:  1, 2  След. 
 
RSS
Начать новую тему   Ответить на тему    Торрент-трекер NNM-Club -> Зарубежные сериалы -> Игра престолов / Game of Thrones
Автор Сообщение
DriverV ®
Модератор Сериалов
Uploader 500+
Стаж: 9 лет 6 мес.
Сообщений: 15527
Ratio: 24K
Поблагодарили: 671993
100%
nnm-club.gif
Игра престолов / Game of Thrones (2014) HDTVRip [720p] (Сезон 4 / Серии 1-10 из 10) AlexFilm
Год выпуска: 2014
Страна: США, Великобритания
Жанр: фэнтези, драма, приключения

Перевод: Многоголосый закадровый, профессиональный - AlexFilm

Автор перевода: Александр Митраков (Opel), Илья Белкин (Volverine73)
& Westeros (форум Ночного Дозора у Стены)

Озвучка: Евгения Тихонова, Анна Тух, Пётр Иващенко (Гланц), Александр Воронов, Александр Дасевич, Константин Погодаев, Михаил Суслов
Монтаж и сведение звука: Михаил Шорыгин



Режиссер: Дэвид Беньофф, Дэн Вайс, Алекс Грейвз
Актеры: Лена Хиди, Николай Костер-Валдау, Питер Динклейдж, Йен Глен, Эмилия Кларк, Кит Харингтон, Стивен Диллэйн, Лиам Каннингем, Кэрис ван Хаутен, Натали Дормер, Гвендолин Кристи, Ханна Мюррей и др.

Описание фильма:
Гражданская война в Семи королевствах подходит к концу. Один король сражен тенью собственного брата, другой убит на свадьбе, третий царит на море, но на суше он никто. Четвертый по воле Владыки Света отправился к границе, разделяющей мир живых и мертвецов. Пятый же — на Железном троне и готовится к свадьбе и союзу, который навсегда покончит с притязаниями на престол со стороны… Если только не окажутся правдой слухи о последней из рода Таргариенов, ее драконах, воинах-безупречных и их победах в каких-то далеких землях.
Но зима уже на пороге, урожай погиб, а Иные пробудились: одичалые бегут от них к Стене, дозорные — за Стену, и только калека со своими спутниками направляются в самое сердце Севера.

Четвертый сезон Игры престолов поставлен преимущественно по второй половине третьего тома Песни Льда и Пламени («Буря мечей») и отчасти по «Пиру стервятников» и «Танцу с драконами».

Продолжительность: ~01:00:00 серия
Качество видео: HDTVRip 720p

Видеокодек: AVC
Формат: MKV
Битрейт видео: ~4189 kb/s
Размер кадра: 1280x714 (16:9)
Аудио Rus: (AC-3, 48,0 kHz, 6 ch, 384 kb/s) - многоголосый закадровый
Аудио Eng: (AC-3, 48,0 kHz, 6 ch, 384 kb/s) - оригинал

Сэмпл
Все раздачи "Игра престолов / Game of Thrones"
Общее
Уникальный идентификатор : 249893274695200715570678002545751781251 (0xBBFFB1AE27BA23568AD30F8ABDE06F83)
Полное имя : D:\Игра престолов (Сезон 4) Game of Thrones (2014) HDTVRip 720p - AlexFilm\Game.of.Thrones.s04e01.HDTVRip.720p.Rus.Eng.AlexFilm.mkv
Формат : Matroska
Версия формата : Version 4 / Version 2
Размер файла : 2,13 Гбайт
Продолжительность : 1 ч. 0 м.
Общий поток : 5058 Кбит/сек
Название фильма : Game of Thrones 4x01 Two Swords @ AlexFilm
Дата кодирования : UTC 2014-04-10 19:41:41
Программа кодирования : mkvmerge v6.6.0 ('The Edge Of The In Between') built on Dec 1 2013 17:55:00
Библиотека кодирования : libebml v1.3.0 + libmatroska v1.4.1

Видео
Идентификатор : 1
Формат : AVC
Формат/Информация : Advanced Video Codec
Профиль формата : High@L4.1
Параметр CABAC формата : Да
Параметр ReFrames формата : 9 кадров
Идентификатор кодека : V_MPEG4/ISO/AVC
Продолжительность : 1 ч. 0 м.
Битрейт : 4189 Кбит/сек
Ширина : 1280 пикселей
Высота : 714 пикселей
Соотношение сторон : 16:9
Режим частоты кадров : Постоянный
Частота кадров : 23,976 кадра/сек
Цветовое пространство : YUV
Субдискретизация насыщенности : 4:2:0
Битовая глубина : 8 бит
Тип развёртки : Прогрессивная
Бит/(Пиксели*Кадры) : 0.191
Размер потока : 1,76 Гбайт (83%)
Библиотека кодирования : x264 core 142 r2409kMod d6b4e63
Настройки программы : cabac=1 / ref=9 / deblock=1:-3:-3 / analyse=0x3:0x113 / me=umh / subme=11 / psy=1 / fade_compensate=0.00 / psy_rd=1.00:0.00 / mixed_ref=1 / me_range=32 / chroma_me=1 / trellis=2 / 8x8dct=1 / cqm=0 / deadzone=21,11 / fast_pskip=0 / chroma_qp_offset=-3 / threads=12 / lookahead_threads=2 / sliced_threads=0 / nr=0 / decimate=1 / interlaced=0 / bluray_compat=0 / constrained_intra=0 / fgo=0 / bframes=9 / b_pyramid=2 / b_adapt=2 / b_bias=0 / direct=1 / weightb=1 / open_gop=0 / weightp=2 / keyint=230 / keyint_min=23 / scenecut=40 / intra_refresh=0 / rc_lookahead=40 / rc=crf / mbtree=0 / crf=17.0000 / qcomp=0.70 / qpmin=0 / qpmax=69 / qpstep=4 / vbv_maxrate=50000 / vbv_bufsize=62500 / crf_max=0.0 / nal_hrd=none / filler=0 / ip_ratio=1.40 / pb_ratio=1.30 / aq=3:0.80
Язык : English
Default : Да
Forced : Нет

Аудио #1
Идентификатор : 2
Формат : AC-3
Формат/Информация : Audio Coding 3
Расширение режима : CM (complete main)
Параметр Endianness формата : Big
Идентификатор кодека : A_AC3
Продолжительность : 1 ч. 0 м.
Вид битрейта : Постоянный
Битрейт : 384 Кбит/сек
Каналы : 6 каналов
Расположение каналов : Front: L C R, Side: L R, LFE
Частота : 48,0 КГц
Битовая глубина : 16 бит
Метод сжатия : С потерями
Размер потока : 165 Мбайт (8%)
Заголовок : DD5.1 AlexFilm
Язык : Russian
Default : Да
Forced : Нет

Аудио #2
Идентификатор : 3
Формат : AC-3
Формат/Информация : Audio Coding 3
Расширение режима : CM (complete main)
Параметр Endianness формата : Big
Идентификатор кодека : A_AC3
Продолжительность : 1 ч. 0 м.
Вид битрейта : Постоянный
Битрейт : 384 Кбит/сек
Каналы : 6 каналов
Расположение каналов : Front: L C R, Side: L R, LFE
Частота : 48,0 КГц
Битовая глубина : 16 бит
Метод сжатия : С потерями
Размер потока : 165 Мбайт (8%)
Заголовок : DD5.1 Original
Язык : English
Default : Нет
Forced : Нет

Текст
Идентификатор : 4
Формат : ASS
Идентификатор кодека : S_TEXT/ASS
Идентификатор кодека/Информация : Advanced Sub Station Alpha
Метод сжатия : Без потерь
Заголовок : Forced
Язык : Russian
Default : Да
Forced : Нет

01. Two Swords / Два меча
02. The Lion and the Rose / Лев и Роза
03. Breaker of Chains / Разрушительница оков
04. Oathkeeper / Верный клятве
05. First of His Name / Именуемый Первым
06. The Laws of Gods and Men / Законы богов и людей
07. Mockingbird / Пересмешник
08. The Mountain and the Viper / Гора и Змей
09. The Watchers on the Wall / Дозорные на Стене
10. The Children / Дети
Скриншоты:


Время раздачи: 24/7 - круглосуточно (по возможности)
[NNM-Club.me]_Igra prestolov (Sezon 4) Game of Thrones (2014) HDTVRip 720p - AlexFilm.torrent
 Торрент: Платиновая раздача  Зарегистрирован
 
Скачать


Примагнититься
 Зарегистрирован:   20 Июн 2014 02:01:39
 Размер:   23 GB  (
 Рейтинг:   4,1 (Голосов: 212)
 Поблагодарили:   581
 Проверка:   Оформление проверено модератором 20 Июн 2014 02:08:40

Лучшие зарубежные сериалы (без рекламы)
Как cкачать  ·  Как раздать  ·  Правильно оформить  ·  Поднять ратио!  
MarkMk2
Стаж: 10 лет
Сообщений: 76
Ratio: 3,006
Поблагодарили: 13
8.55%
russia.gif
Ох, наконец-то! Спасибо, спасибо, спасибо! Отличный перевод и 5.1
obmorok
Стаж: 8 лет 11 мес.
Сообщений: 133
Ratio: 8,573
Раздал: 540 GB
100%
witch.png
спасибо! ждал!!

_________________
maersx
Стаж: 9 лет 7 мес.
Сообщений: 4
Ratio: 34,167
Раздал: 269 GB
51.06%
Спасибо!
Качаем! )
tazik9
Стаж: 9 лет 4 мес.
Сообщений: 91
Ratio: 0,397
100%
belarus.gif
Когда же уже вторая серия..........
viSaiDj
Стаж: 9 лет 11 мес.
Сообщений: 11
Ratio: 6,042
95.28%
tazik9 сегодня
tazik9
Стаж: 9 лет 4 мес.
Сообщений: 91
Ratio: 0,397
100%
belarus.gif
viSaiDj писал(а): Перейти к сообщению
tazik9 сегодня

Ложь, как оказалось.
Досадно, что я для себя установку дал смотреть только в этом переводе, приходится слишком долго ждать, от лоста уже давным давно есть...
Но это не претензия, я и так благодарен за перевод AlexFilm:)
viSaiDj
Стаж: 9 лет 11 мес.
Сообщений: 11
Ratio: 6,042
95.28%
tazik9
Не ложь, задержали на пару часов, а эту раздачу не обновили пока..
tazik9
Стаж: 9 лет 4 мес.
Сообщений: 91
Ratio: 0,397
100%
belarus.gif
viSaiDj писал(а): Перейти к сообщению
tazik9
Не ложь, задержали на пару часов, а эту раздачу не обновили пока..

Ну какие пары часов, если Вы писали это сутки назад:)
viSaiDj
Стаж: 9 лет 11 мес.
Сообщений: 11
Ratio: 6,042
95.28%
tazik9
На официальном сайте алексов заявлено было 18 число, релиз состоялся 19-го числа в период между 2-мя и 3-мя ночи, сколько задержка по Вашему?
tazik9
Стаж: 9 лет 4 мес.
Сообщений: 91
Ratio: 0,397
100%
belarus.gif
viSaiDj писал(а): Перейти к сообщению
tazik9
На официальном сайте алексов заявлено было 18 число, релиз состоялся 19-го числа в период между 2-мя и 3-мя ночи, сколько задержка по Вашему?


Окей, убедили:)
dannymon
Стаж: 8 лет 2 мес.
Сообщений: 2
Ratio: 22,161
100%
Хорошая озвучка, особенно на фоне приевшихся голосов из Lostfilm, не в обиду последним.
Люта
Стаж: 6 лет 8 мес.
Сообщений: 1
Ratio: 708,896
100%
спасибо за раздачу! :)
MastaPP
Стаж: 7 лет 6 мес.
Сообщений: 60
Ratio: 3,436
14.1%
Ой спасибо, дождались.
serg522
Стаж: 7 лет 5 мес.
Сообщений: 39
Ratio: 17,47
100%
Откуда: Нижний Новгород
russia.gif
Удовольствие от просмотра ПРОДОЛЖАЕТСЯ! СПАСИБО!
Показать сообщения:   
Начать новую тему   Ответить на тему    Торрент-трекер NNM-Club -> Зарубежные сериалы -> Игра престолов / Game of Thrones Часовой пояс: GMT + 3
Страницы:  1, 2  След.
Страница 1 из 2