Классический форум-трекер
canvas not supported
Нас вместе: 4 102 066

Игра престолов / Game of Thrones (2014) HDTVRip (Сезон 4 Серия 01-10 из 10) (LostFilm, AlexFilm, Amedia, FOX, Oмикрон)


Страницы:   Пред.  1, 2, 3 
 
RSS
Начать новую тему   Ответить на тему    Торрент-трекер NNM-Club -> Зарубежные сериалы -> Игра престолов / Game of Thrones
Автор Сообщение
Игорь_Вла​димирович​ ®
Стаж: 8 лет 1 мес.
Сообщений: 2523
Ratio: 1216,391
Раздал: 32,12 TB
Поблагодарили: 137556
100%
Игра престолов / Game of Thrones (2014) HDTVRip (Сезон 4 Серия 01-10 из 10) (LostFilm, AlexFilm, Amedia, FOX, Oмикрон)
Русское название:Игра престолов
Оригинальное название: Game of Thrones
Год выпуска: 2014
Страна: США, Великобритания
Жанр: Фэнтези, драма, приключения

Перевод: Многоголосый закадровый (LostFilm, AlexFilm, Fox, Oмикрон)
Дубляж (Amedia - Кравец)
Вид субтитров: Отдельным файлом
Язык субтитров: Русский (Forced, Amedia, 7kingdoms), английский
Режиссер: Алан Тейлор, Алекс Грейвз, Даниэль Минахан
Актеры: Лина Хиди, Питер Динклэйдж, Мишель Фэйрли, Эмилия Кларк, Кит Харингтон, Шон Бин, Николай Костер-Вальдау, Айэйн Глен, Марк Эдди, Эйден Гиллен

Описание:
Гражданская война в Семи королевствах подходит к концу. Один король сражен тенью собственного брата, другой убит на свадьбе, третий царит на море, но на суше он никто. Четвертый по воле Владыки Света отправился к границе, разделяющей мир живых и мертвецов. Пятый же — на Железном троне и готовится к свадьбе и союзу, который навсегда покончит с притязаниями на престол со стороны… Если только не окажутся правдой слухи о последней из рода Таргариенов, ее драконах, воинах-безупречных и их победах в каких-то далеких землях.
Но зима уже на пороге, урожай погиб, а Иные пробудились: одичалые бегут от них к Стене, дозорные — за Стену, и только калека со своими спутниками направляются в самое сердце Севера.

Четвертый сезон Игры престолов поставлен преимущественно по второй половине третьего тома Песни Льда и Пламени («Буря мечей») и отчасти по «Пиру стервятников» и «Танцу с драконами».


Сэмпл:
Продолжительность: ~ 01:00:00 серия
Качество видео: HDTVRip
Формат: AVI
Видео:720x400 (1.80:1), 23.976 fps, XviD build 65 ~2000 kbps avg, 0.29 bit/pixel
Audio #1 Rus: 48 kHz, AC3, 3/2 (L,C,R,l,r) + LFE ch, ~384.00 kbps avg | LostFilm
Audio #2 Rus: 48 kHz, AC3, 3/2 (L,C,R,l,r) + LFE ch, ~384.00 kbps avg | AlexFilm
Audio #3 Rus: 48 kHz, AC3, 2/0 (L,R) ch, ~192.00 kbps avg | Kravec
Audio #4 Rus: 48 kHz, AC3, 3/2 (L,C,R,l,r) + LFE ch, ~384.00 kbps avg | FOX
Audio #5 Ukr:48 kHz, AC3, 3/2 (L,C,R,l,r) + LFE ch, ~384.00 kbps avg| Oмикрон
Audio #6 Eng: 48 kHz, AC3, 3/2 (L,C,R,l,r) + LFE ch, ~384.00 kbps avg
Релиз:
Исходник: by Nez
Рип: KURT
- в 1 серии Oмикрон 48 kHz, AC3, 2/0 (L,R) ch, ~384.00 kbps avg

Скриншоты
General
Complete name : F:\Сериал\раздача\Game of Thrones (Season 4)\Game of Thrones.S04E01.CasStudio.avi
Format : AVI
Format/Info : Audio Video Interleave
File size : 1.61 GiB
Duration : 58mn 11s
Overall bit rate : 3 952 Kbps
Writing application : VirtualDubMod 1.5.10.2 (build 2542/release)
Writing library : VirtualDubMod build 2542/release

Video
ID : 0
Format : MPEG-4 Visual
Format profile : Advanced Simple@L5
Format settings, BVOP : 1
Format settings, QPel : No
Format settings, GMC : No warppoints
Format settings, Matrix : Default (MPEG)
Codec ID : XVID
Codec ID/Hint : XviD
Duration : 58mn 11s
Bit rate : 1 999 Kbps
Width : 720 pixels
Height : 400 pixels
Display aspect ratio : 16:9
Frame rate : 23.976 fps
Color space : YUV
Chroma subsampling : 4:2:0
Bit depth : 8 bits
Scan type : Progressive
Compression mode : Lossy
Bits/(Pixel*Frame) : 0.290
Stream size : 832 MiB (51%)
Writing library : XviD 65

Audio #1
ID : 1
Format : AC-3
Format/Info : Audio Coding 3
Mode extension : CM (complete main)
Format settings, Endianness : Big
Codec ID : 2000
Duration : 58mn 11s
Bit rate mode : Constant
Bit rate : 384 Kbps
Channel(s) : 6 channels
Channel positions : Front: L C R, Side: L R, LFE
Sampling rate : 48.0 KHz
Bit depth : 16 bits
Compression mode : Lossy
Stream size : 160 MiB (10%)
Alignment : Split accross interleaves
Interleave, duration : 42 ms (1.00 video frame)
Interleave, preload duration : 500 ms

Audio #2
ID : 2
Format : AC-3
Format/Info : Audio Coding 3
Mode extension : CM (complete main)
Format settings, Endianness : Big
Codec ID : 2000
Duration : 58mn 11s
Bit rate mode : Constant
Bit rate : 384 Kbps
Channel(s) : 6 channels
Channel positions : Front: L C R, Side: L R, LFE
Sampling rate : 48.0 KHz
Bit depth : 16 bits
Compression mode : Lossy
Stream size : 160 MiB (10%)
Alignment : Split accross interleaves
Interleave, duration : 42 ms (1.00 video frame)
Interleave, preload duration : 500 ms

Audio #3
ID : 3
Format : AC-3
Format/Info : Audio Coding 3
Mode extension : CM (complete main)
Format settings, Endianness : Big
Codec ID : 2000
Duration : 58mn 11s
Bit rate mode : Constant
Bit rate : 192 Kbps
Channel(s) : 2 channels
Channel positions : Front: L R
Sampling rate : 48.0 KHz
Bit depth : 16 bits
Compression mode : Lossy
Stream size : 79.9 MiB (5%)
Alignment : Split accross interleaves
Interleave, duration : 42 ms (1.00 video frame)
Interleave, preload duration : 500 ms

Audio #4
ID : 4
Format : AC-3
Format/Info : Audio Coding 3
Mode extension : CM (complete main)
Format settings, Endianness : Big
Codec ID : 2000
Duration : 58mn 11s
Bit rate mode : Constant
Bit rate : 192 Kbps
Channel(s) : 2 channels
Channel positions : Front: L R
Sampling rate : 48.0 KHz
Bit depth : 16 bits
Compression mode : Lossy
Stream size : 79.9 MiB (5%)
Alignment : Split accross interleaves
Interleave, duration : 42 ms (1.00 video frame)
Interleave, preload duration : 500 ms

Audio #5
ID : 5
Format : AC-3
Format/Info : Audio Coding 3
Mode extension : CM (complete main)
Format settings, Endianness : Big
Codec ID : 2000
Duration : 58mn 11s
Bit rate mode : Constant
Bit rate : 384 Kbps
Channel(s) : 2 channels
Channel positions : Front: L R
Sampling rate : 48.0 KHz
Bit depth : 16 bits
Compression mode : Lossy
Stream size : 160 MiB (10%)
Alignment : Split accross interleaves
Interleave, duration : 42 ms (1.00 video frame)
Interleave, preload duration : 500 ms

Audio #6
ID : 6
Format : AC-3
Format/Info : Audio Coding 3
Mode extension : CM (complete main)
Format settings, Endianness : Big
Codec ID : 2000
Duration : 58mn 11s
Bit rate mode : Constant
Bit rate : 384 Kbps
Channel(s) : 6 channels
Channel positions : Front: L C R, Side: L R, LFE
Sampling rate : 48.0 KHz
Bit depth : 16 bits
Compression mode : Lossy
Stream size : 160 MiB (10%)
Alignment : Split accross interleaves
Interleave, duration : 42 ms (1.00 video frame)
Interleave, preload duration : 500 ms
Сериал "Игра престолов / Game of Thrones " на NoNaMe Club


Время раздачи: с 9.00 до 23.00, до первых пяти скачавших
[NNM-Club.me]_Game of Thrones (Season 4).torrent
 Торрент: Платиновая раздача  Зарегистрирован
 
Скачать


Примагнититься
 Зарегистрирован:   30 Июн 2014 19:43:52
 Размер:   15,9 GB  (
 Рейтинг:   4,8 (Голосов: 220)
 Поблагодарили:   836
 Проверка:   Оформление проверено модератором 30 Июн 2014 19:56:06
Как cкачать  ·  Как раздать  ·  Правильно оформить  ·  Поднять ратио!  

_________________

Мои релизы
Anatolysa
Стаж: 12 лет 1 мес.
Сообщений: 6
Ratio: 12,878
3.75%
Откуда: москва
russia.gif
Когда будет 9 серия? Она вышла 8 Июня.

_________________
Бар-бар-бия киргуду
Skelas
Стаж: 6 лет 2 мес.
Сообщений: 11
Ratio: 25,682
100%
witch.png
chichikoff17 писал(а): Перейти к сообщению
Добавлена 8-я серия.
В 5 и 6 сериях дорожки AlexFilm заменены на исправленные.
Обновите торрент.


Спасибо.
А что значит "исправленные" 5 и 6 серии??
Romarinio77
Стаж: 8 лет 10 мес.
Сообщений: 74
Ratio: 8,131
100%
russia.gif
ну вот и сезон закончился,пора бы остальные серии выложить))
Ferrat2
Стаж: 9 лет 1 мес.
Сообщений: 293
Ratio: 5,299
100%
ussr.gif
Ребят, прикрутите сюда керобовскую озвучку тоже, пожалуйста. Хотя бы отдельными файлами как субтитры.
wypa
Стаж: 5 лет 9 мес.
Сообщений: 1
0%
У лост фильма уже давно 9 и 10-я серия есть. Чего такие задержки?
chigasova
Стаж: 8 лет 9 мес.
Сообщений: 3
Ratio: 4,399
33.33%
russia.gif
Автор, что же так долго? Ваша раздача с английской дорожкой и такими разными субтитрами - лучшая для 4-го сезона данного сериала. Очень ждем 9 и 10 серии. Искренне ваши, поклонники Игры престолов и результатов Вашего труда над этим сериалом.
andrew5577
Стаж: 7 лет 2 мес.
Сообщений: 2
Ratio: 62,2
98.25%
kazakhstan.gif
Автору трудно ответить? Видимо уехал на Юга?Если какой то дорожки нет,есть подозрение,что уже и не будет.Может выложить в урезанном составе? В крайнем случае,потом добавить?
Или мы чего то запредельного просим?
При всём том,что Вы нам,естественно,ничего,никому НЕ ДОЛЖНЫ.
С уважением и просьбой ответить... :смущение:

_________________
С уважением,andrew5577...
Игорь_Вла​димирович​ ®
Стаж: 8 лет 1 мес.
Сообщений: 2523
Ratio: 1216,391
Раздал: 32,12 TB
Поблагодарили: 137556
100%
Добавлены 9-10 серии.
Финал сезона.
Обновите торрент.

_________________

Мои релизы
nanosoldat
Стаж: 8 лет 7 мес.
Сообщений: 3
Ratio: 40,642
100%
Ребят, почему у меня две озвучки друг на друга накладываются?
simplicisimus
Стаж: 5 лет 11 мес.
Сообщений: 1
Ratio: 101,813
60%
Прикольно. Сегодня 31 июня оказывается ;-)
Показать сообщения:   
Начать новую тему   Ответить на тему    Торрент-трекер NNM-Club -> Зарубежные сериалы -> Игра престолов / Game of Thrones Часовой пояс: GMT + 3
Страницы:   Пред.  1, 2, 3
Страница 3 из 3