Классический форум-трекер
canvas not supported
Нас вместе: 4 102 995

Игра престолов / Game of Thrones (2014) HDTVRip [720p] (Сезон 4 Серия 01-10 из 10) (LostFilm, AlexFilm, Amedia, FOX, Oмикрон)


Страницы:   Пред.  1, 2, 3, 4, 5  След. 
 
RSS
Начать новую тему   Ответить на тему    Торрент-трекер NNM-Club -> Зарубежные сериалы -> Игра престолов / Game of Thrones
Автор Сообщение
Игорь_Вла​димирович​ ®
Стаж: 8 лет 1 мес.
Сообщений: 2523
Ratio: 1216,391
Раздал: 32,12 TB
Поблагодарили: 137564
100%
Игра престолов / Game of Thrones (2014) HDTVRip [720p] (Сезон 4 Серия 01-10 из 10) (LostFilm, AlexFilm, Amedia, FOX, Oмикрон)

Год выпуска: 2014
Страна: США, Великобритания, Bighead Littlehead, Created By, Generator Entertainment, Home Box Office (HBO), Television 360
Жанр: Фэнтези, драма, приключения

Перевод: Многоголосый закадровый (LostFilm, AlexFilm, Fox, Oмикрон)
Дубляж (Amedia - Кравец)
Вид субтитров: Отдельным файлом
Язык субтитров: Русский (Forced, Amedia, 7kingdoms), английский
Режиссер: Алан Тейлор, Алекс Грейвз, Даниэль Минахан
Актеры: Лина Хиди, Питер Динклэйдж, Мишель Фэйрли, Эмилия Кларк, Кит Харингтон, Шон Бин, Николай Костер-Вальдау, Айэйн Глен, Марк Эдди, Эйден Гиллен

Описание:
Гражданская война в Семи королевствах подходит к концу. Один король сражен тенью собственного брата, другой убит на свадьбе, третий царит на море, но на суше он никто. Четвертый по воле Владыки Света отправился к границе, разделяющей мир живых и мертвецов. Пятый же — на Железном троне и готовится к свадьбе и союзу, который навсегда покончит с притязаниями на престол со стороны… Если только не окажутся правдой слухи о последней из рода Таргариенов, ее драконах, воинах-безупречных и их победах в каких-то далеких землях.
Но зима уже на пороге, урожай погиб, а Иные пробудились: одичалые бегут от них к Стене, дозорные — за Стену, и только калека со своими спутниками направляются в самое сердце Севера.

Четвертый сезон Игры престолов поставлен преимущественно по второй половине третьего тома Песни Льда и Пламени («Буря мечей») и отчасти по «Пиру стервятников» и «Танцу с драконами».


Сэмпл:
Продолжительность: ~ 01:00:00 серия
Качество видео: HDTVRip (720p)
Видео:AVC, 1280x714 (16:9), 23.976 fps, 4 136 Kbps (0.189 bit/pixel)
Audio #1 Rus: AC-3, 48.0 KHz, 6 ch, 384 Kbps, CBR | LostFilm
Audio #2 Rus: AC-3, 48.0 KHz, 6 ch, 384 Kbps, CBR | AlexFilm
Audio #3 Rus: AC-3, 48.0 KHz, 2 ch, 192 Kbps, CBR | Kravec
Audio #4 Rus:AC-3, 48.0 KHz, 6 ch, 384 Kbps, CBR | FOX
Audio #5 Ukr:AC-3, 48.0 KHz, 6 ch, 384 Kbps, CBR | Oмикрон
Audio #6 Eng: AC-3, 48.0 KHz, 2 ch, 384 Kbps, CBR
Субтитры: Russian (Forced), Russian (Amedia), Russian (7kingdoms.ru), English
Исходник: by Nez
Рип: DON
- Дорожка №1 получена наложением выделенного голоса на центр декодированного AC3.
- Работа со звуком - Nez
- в 1 серии Oмикрон 48 kHz, AC3, 2/0 (L,R) ch, ~384.00 kbps avg

Скриншоты


01. Два меча / Two Swords
02. Лев и Роза / The Lion and the Rose
03. Разрушительница оков / Breaker of Chains
04. Верный клятве / Oathkeeper
05. Именуемый Первым / First of His Name
06. Законы богов и людей / The Laws of Gods and Men
07. Пересмешник / Mockingbird
08. Гора и Змей / The Mountain and the Viper
09. Дозорные на Стене / The Watchers on the Wall
10. Дети / The Children
General
Unique ID : 177957507934302242818078586674391466338 (0x85E15E8CCC82696EBE1C5D2C69F6C162)
Complete name : F:\Сериал\раздача\Game.of.Thrones.S04.HDTVRip.720p.4xRus.Ukr.Eng.HDCLUB\Game.of.Thrones.S04E01.720p.HDTVRip.4xRus.Ukr.Eng.HDCLUB.mkv
Format : Matroska
Format version : Version 4 / Version 2
File size : 2.51 GiB
Duration : 58mn 11s
Overall bit rate : 6 179 Kbps
Movie name : Game of Thrones 4x01 (2014) - Release for HDCLUB
Encoded date : UTC 2014-04-10 21:55:56
Writing application : mkvmerge v6.7.0 ('Back to the Ground') 64bit built on Jan 8 2014 15:10:52
Writing library : libebml v1.3.0 + libmatroska v1.4.1

Video
ID : 1
Format : AVC
Format/Info : Advanced Video Codec
Format profile : High@L4.1
Format settings, CABAC : Yes
Format settings, ReFrames : 9 frames
Format settings, GOP : M=2, N=24
Codec ID : V_MPEG4/ISO/AVC
Duration : 58mn 11s
Bit rate : 4 136 Kbps
Width : 1 280 pixels
Height : 714 pixels
Display aspect ratio : 16:9
Frame rate mode : Constant
Frame rate : 23.976 fps
Color space : YUV
Chroma subsampling : 4:2:0
Bit depth : 8 bits
Scan type : Progressive
Bits/(Pixel*Frame) : 0.189
Stream size : 1.68 GiB (67%)
Title : Game of Thrones 4x01: Two Swords - Release for HDCLUB
Language : Russian
Default : Yes
Forced : No

Audio #1
ID : 2
Format : AC-3
Format/Info : Audio Coding 3
Mode extension : CM (complete main)
Format settings, Endianness : Big
Codec ID : A_AC3
Duration : 58mn 11s
Bit rate mode : Constant
Bit rate : 384 Kbps
Channel(s) : 6 channels
Channel positions : Front: L C R, Side: L R, LFE
Sampling rate : 48.0 KHz
Bit depth : 16 bits
Compression mode : Lossy
Stream size : 160 MiB (6%)
Title : LostFilm
Language : Russian
Default : Yes
Forced : No

Audio #2
ID : 3
Format : AC-3
Format/Info : Audio Coding 3
Mode extension : CM (complete main)
Format settings, Endianness : Big
Codec ID : A_AC3
Duration : 58mn 11s
Bit rate mode : Constant
Bit rate : 384 Kbps
Channel(s) : 6 channels
Channel positions : Front: L C R, Side: L R, LFE
Sampling rate : 48.0 KHz
Bit depth : 16 bits
Compression mode : Lossy
Stream size : 160 MiB (6%)
Title : AlexFilm
Language : Russian
Default : No
Forced : No

Audio #3
ID : 4
Format : AC-3
Format/Info : Audio Coding 3
Mode extension : CM (complete main)
Format settings, Endianness : Big
Codec ID : A_AC3
Duration : 58mn 11s
Bit rate mode : Constant
Bit rate : 192 Kbps
Channel(s) : 2 channels
Channel positions : Front: L R
Sampling rate : 48.0 KHz
Bit depth : 16 bits
Compression mode : Lossy
Stream size : 79.9 MiB (3%)
Title : Kravec
Language : Russian
Default : No
Forced : No

Audio #4
ID : 5
Format : AC-3
Format/Info : Audio Coding 3
Mode extension : CM (complete main)
Format settings, Endianness : Big
Codec ID : A_AC3
Duration : 58mn 11s
Bit rate mode : Constant
Bit rate : 192 Kbps
Channel(s) : 2 channels
Channel positions : Front: L R
Sampling rate : 48.0 KHz
Bit depth : 16 bits
Compression mode : Lossy
Stream size : 79.9 MiB (3%)
Title : FOX
Language : Russian
Default : No
Forced : No

Audio #5
ID : 6
Format : AC-3
Format/Info : Audio Coding 3
Mode extension : CM (complete main)
Format settings, Endianness : Big
Codec ID : A_AC3
Duration : 58mn 11s
Bit rate mode : Constant
Bit rate : 384 Kbps
Channel(s) : 2 channels
Channel positions : Front: L R
Sampling rate : 48.0 KHz
Bit depth : 16 bits
Compression mode : Lossy
Stream size : 160 MiB (6%)
Title : Omikron
Language : Ukrainian
Default : No
Forced : No

Audio #6
ID : 7
Format : AC-3
Format/Info : Audio Coding 3
Mode extension : CM (complete main)
Format settings, Endianness : Big
Codec ID : A_AC3
Duration : 58mn 11s
Bit rate mode : Constant
Bit rate : 384 Kbps
Channel(s) : 6 channels
Channel positions : Front: L C R, Side: L R, LFE
Sampling rate : 48.0 KHz
Bit depth : 16 bits
Compression mode : Lossy
Stream size : 160 MiB (6%)
Title : English
Language : English
Default : No
Forced : No

Text #1
ID : 8
Format : ASS
Codec ID : S_TEXT/ASS
Codec ID/Info : Advanced Sub Station Alpha
Compression mode : Lossless
Title : Forced
Language : Russian
Default : Yes
Forced : Yes

Text #2
ID : 9
Format : UTF-8
Codec ID : S_TEXT/UTF8
Codec ID/Info : UTF-8 Plain Text
Title : Amedia
Language : Russian
Default : No
Forced : No

Text #3
ID : 10
Format : UTF-8
Codec ID : S_TEXT/UTF8
Codec ID/Info : UTF-8 Plain Text
Title : 7kingdoms.ru
Language : Russian
Default : No
Forced : No

Text #4
ID : 11
Format : UTF-8
Codec ID : S_TEXT/UTF8
Codec ID/Info : UTF-8 Plain Text
Title : eng-sub
Language : English
Default : No
Forced : No
Сериал "Игра престолов / Game of Thrones " на NoNaMe Club


Время раздачи: с 9.00 до 23.00, до первых пяти скачавших
[NNM-Club.me]_Game.of.Thrones.S04.HDTVRip.720p.4xRus.Ukr.Eng.HDCLUB.torrent
 Торрент: Платиновая раздача  Зарегистрирован
 
Скачать


Примагнититься
 Зарегистрирован:   30 Июн 2014 09:05:27
 Размер:   27,5 GB  (
 Рейтинг:   4,9 (Голосов: 357)
 Поблагодарили:   1176
 Проверка:   Оформление проверено модератором 30 Июн 2014 09:13:04
Как cкачать  ·  Как раздать  ·  Правильно оформить  ·  Поднять ратио!  

_________________

Мои релизы
rettiwt
Стаж: 6 лет 9 мес.
Сообщений: 7
Ratio: 26,976
0%
Опять алексфилм...
Они без косяков совсем не умеют? :нет:
megaaxel
Стаж: 6 лет 11 мес.
Сообщений: 2
Ratio: 3,843
0%
del
YodaStorm
Стаж: 6 лет 7 мес.
Сообщений: 2
Ratio: 11,508
0%
когда девятая будет?
rettiwt
Стаж: 6 лет 9 мес.
Сообщений: 7
Ratio: 26,976
0%
...
macabr
Стаж: 12 лет 1 мес.
Сообщений: 452
Ratio: 1,202
100%
russia.gif
Боже!Как представлю,что этот сериал когда-то закончится ... Готов смотреть его вечно!

_________________
Если можно, а тем более нужно, то как-то не очень и хочется.
gsp1958
Стаж: 6 лет 10 мес.
Сообщений: 61
Ratio: 131,066
100%
Откуда: Orenburg
russia.gif
а когда 9 и 10 будут уже по телику показали!!!...?
TibiEtIgni
Стаж: 8 лет 9 мес.
Сообщений: 679
Ratio: 2,33
Поблагодарили: 4
6.02%
belarus.gif
подскажите ,юзал мю торрент. qbittorrent понравился больше. реально удобней. Но не могу скачать
данный сериал , причем разные версии пробовал. загрузка останавливается и логе ошибка:
10/06/2014 22:59:30 - Причина: Game.of.Thrones.S04.HDTVRip.720p.4xRus.Ukr.Eng.HDCLUB file (D:/загрузки new/Game.of.Thrones.S04.HDTVRip.720p.4xRus.Ukr.Eng.HDCLUB\Game.of.Thrones.S04E05.720p.HDTVRip.4xRus.Ukr.Eng.HDCLUB.mkv) error: Процесс не может получить доступ к файлу, так как этот файл занят другим процессом
wtf?
yak192
Стаж: 8 лет 8 мес.
Сообщений: 56
Ratio: 13,02
14.74%
albania.gif
2 TibiEtIgni

Это говорит о том, что у вас этот файл занят другим процессом. Этим процессом (скорее всего) может быть другая программа-торрент, качающая одновременно тот же файл. Когда "пробуете разные версии" надо сначала остановить первую программу, прежде чем запускать вторую, качающую тот же торрент на то же самое место.
TibiEtIgni
Стаж: 8 лет 9 мес.
Сообщений: 679
Ratio: 2,33
Поблагодарили: 4
6.02%
belarus.gif
yak192 писал(а): Перейти к сообщению
2 TibiEtIgni

Это говорит о том, что у вас этот файл занят другим процессом. Этим процессом (скорее всего) может быть другая программа-торрент, качающая одновременно тот же файл. Когда "пробуете разные версии" надо сначала остановить первую программу, прежде чем запускать вторую, качающую тот же торрент на то же самое место.

похоже на то. Хотя ничего параллельно не запущено. попробую перезагрузить комп.
kikitor
Стаж: 6 лет 4 мес.
Сообщений: 1
Ratio: 73,499
0%
роскомнадзор притушил озвучку
Dermon
Стаж: 10 лет
Сообщений: 9
Ratio: 4,884
100%
9 и 10 серии планируются?
boris-britva
Стаж: 6 лет 7 мес.
Сообщений: 2
Ratio: 121,681
100%
А будит обновление ?
gsp1958
Стаж: 6 лет 10 мес.
Сообщений: 61
Ratio: 131,066
100%
Откуда: Orenburg
russia.gif
ответ нам будет или нет?
formalist
Стаж: 9 лет 8 мес.
Сообщений: 116
Ratio: 49,695
100%
Откуда: Moscow
russia.gif
Цитата:
ответ нам будет или нет?

Присоединяюсь.

_________________
Всё написанное выше - ИМХО.
boris-britva
Стаж: 6 лет 7 мес.
Сообщений: 2
Ratio: 121,681
100%
Не подскажите, а ждать обновление ?
Показать сообщения:   
Начать новую тему   Ответить на тему    Торрент-трекер NNM-Club -> Зарубежные сериалы -> Игра престолов / Game of Thrones Часовой пояс: GMT + 3
Страницы:   Пред.  1, 2, 3, 4, 5  След.
Страница 4 из 5