Классический форум-трекер
canvas not supported
Нас вместе: 4 083 784
Платим за отзывы

Полицейская история 2013 / Jing cha gu shi 2013 (2013) BDRip [1080p]


 
 
RSS
Начать новую тему   Ответить на тему    Торрент-трекер NNM-Club -> Зарубежное кино -> Азиатское кино (HD, UHD, UHD-LQ)
Автор Сообщение
MR Sergei ®
Uploaders 100+
 
Стаж: 7 лет 2 мес.
Сообщений: 3058
Ratio: 33K
Раздал: 302,4 TB
Поблагодарили: 549421
100%
Откуда: ЛНР, Краснодон
russia.gif
Полицейская история 2013 / Jing cha gu shi 2013 (2013) BDRip [1080p]
Производство: Китай, Гонконг
Жанр: Криминал, Драма, Боевик, Триллер

Перевод: Двуголосый закадровый, любительский
Автор перевода: Студия "GREENTEA"
Вид субтитров: Вшитые отключаемые
Язык субтитров: Английский

Описание:
История начинается с того, что посетители паба оказываются взятыми в заложники. Среди посетителей есть офицер полиции Вэнь Чжун и его непослушная дочь Мяомяо. Человек, удерживающий всех в заложниках — владелец паба, который таким образом пытается добиться освобождения из тюрьмы одного преступника…

Режиссер: Дин Шэн
Продюсер: Янг Ду, Чжан Ванг
Актеры: Джеки Чан, Лю Е, Тянь Цзин, Бо Хуан, Юй Жун Гуан, Александр Байли, Макс Хуан, Джеймс Лоджа, Андреас Нгуйен



Дата мировой премьеры: 24 декабря 2013
Дата российской премьеры: 20 марта 2014, «Каравелла DDC»

Продолжительность: 01:50:07
Качество видео: BDRip [1080p]

Видеокодек: MPEG-4 AVC/H.264
Битрейт видео: 9366 Kbps
Размер кадра: 1920х816
Аудио #1: Русский: AC-3, 48.0 KHz, 2 ch, 224 Kbps, CBR
Аудио #2: Китайский: AC-3, 48.0 KHz, 6 ch, 448 Kbps, CBR
Аудио #3: Китайский: DTS, 48.0 KHz, 6 ch, 1510 Kbps, CBR
Сэмпл: Скачать
Общее
Уникальный идентификатор : 200033117936828055614215733723028610042 (0x967CFA27D655755FB4EE653221695BFA)
Полное имя : Е:\Фильмы\Policeyskaya.Istoriya.4.2013.BDRip.1080p.mkv
Формат : Matroska
Версия формата : Version 4 / Version 2
Размер файла : 8,86 Гбайт
Продолжительность : 1 ч. 50 м.
Общий поток : 11,5 Мбит/сек
Дата кодирования : UTC 2014-05-02 20:06:38
Программа кодирования : mkvmerge v6.9.1 ('Blue Panther') 64bit built on Apr 18 2014 18:23:38
Библиотека кодирования : libebml v1.3.0 + libmatroska v1.4.1

Видео
Идентификатор : 1
Формат : AVC
Формат/Информация : Advanced Video Codec
Профиль формата : High@L4.1
Параметр CABAC формата : Да
Параметр ReFrames формата : 5 кадров
Идентификатор кодека : V_MPEG4/ISO/AVC
Продолжительность : 1 ч. 50 м.
Битрейт : 9366 Кбит/сек
Ширина : 1920 пикселей
Высота : 816 пикселей
Соотношение сторон : 2,35:1
Режим частоты кадров : Постоянный
Частота кадров : 24,000 кадра/сек
Цветовое пространство : YUV
Субдискретизация насыщенности : 4:2:0
Битовая глубина : 8 бит
Тип развёртки : Прогрессивная
Бит/(Пиксели*Кадры) : 0.249
Размер потока : 7,01 Гбайт (79%)
Библиотека кодирования : x264 core 138 r2356 a1d3d17
Настройки программы : cabac=1 / ref=5 / deblock=1:-3:-3 / analyse=0x3:0x113 / me=umh / subme=10 / psy=1 / psy_rd=1.00:0.05 / mixed_ref=1 / me_range=32 / chroma_me=1 / trellis=2 / 8x8dct=1 / cqm=0 / deadzone=21,11 / fast_pskip=0 / chroma_qp_offset=-2 / threads=18 / lookahead_threads=1 / sliced_threads=0 / nr=0 / decimate=1 / interlaced=0 / bluray_compat=0 / constrained_intra=0 / bframes=4 / b_pyramid=2 / b_adapt=2 / b_bias=0 / direct=3 / weightb=1 / open_gop=0 / weightp=2 / keyint=250 / keyint_min=24 / scenecut=40 / intra_refresh=0 / rc=2pass / mbtree=0 / bitrate=9366 / ratetol=1.0 / qcomp=0.70 / qpmin=0 / qpmax=69 / qpstep=4 / cplxblur=20.0 / qblur=0.5 / ip_ratio=1.40 / pb_ratio=1.30 / aq=2:1.00
Язык : Chinese
Default : Да
Forced : Нет

Аудио #1
Идентификатор : 2
Формат : AC-3
Формат/Информация : Audio Coding 3
Расширение режима : CM (complete main)
Параметр Endianness формата : Big
Идентификатор кодека : A_AC3
Продолжительность : 1 ч. 50 м.
Вид битрейта : Постоянный
Битрейт : 224 Кбит/сек
Каналы : 2 канала
Расположение каналов : Front: L R
Частота : 48,0 КГц
Битовая глубина : 16 бит
Метод сжатия : С потерями
Размер потока : 176 Мбайт (2%)
Язык : Russian
Default : Да
Forced : Нет

Аудио #2
Идентификатор : 3
Формат : AC-3
Формат/Информация : Audio Coding 3
Расширение режима : CM (complete main)
Параметр Endianness формата : Big
Идентификатор кодека : A_AC3
Продолжительность : 1 ч. 50 м.
Вид битрейта : Постоянный
Битрейт : 448 Кбит/сек
Каналы : 6 каналов
Расположение каналов : Front: L C R, Side: L R, LFE
Частота : 48,0 КГц
Битовая глубина : 16 бит
Метод сжатия : С потерями
Размер потока : 353 Мбайт (4%)
Язык : Chinese
Default : Нет
Forced : Нет

Аудио #3
Идентификатор : 4
Формат : DTS
Формат/Информация : Digital Theater Systems
Режим : 16
Параметр Endianness формата : Big
Идентификатор кодека : A_DTS
Продолжительность : 1 ч. 50 м.
Вид битрейта : Постоянный
Битрейт : 1509 Кбит/сек
Каналы : 6 каналов
Расположение каналов : Front: L C R, Side: L R, LFE
Частота : 48,0 КГц
Битовая глубина : 24 бит
Метод сжатия : С потерями
Размер потока : 1,16 Гбайт (13%)
Язык : Chinese
Default : Нет
Forced : Нет

Текст
Идентификатор : 5
Формат : UTF-8
Идентификатор кодека : S_TEXT/UTF8
Идентификатор кодека/Информация : UTF-8 Plain Text
Язык : English
Default : Нет
Forced : Нет

Меню
00:00:00.000 : zh:
00:09:49.000 : zh:
00:19:52.000 : zh:
00:28:14.625 : zh:
00:37:56.000 : zh:
00:47:41.000 : zh:
00:56:41.000 : zh:
01:05:11.000 : zh:
01:15:06.000 : zh:
01:25:26.000 : zh:
01:34:59.000 : zh:
01:43:00.000 : zh:
Скриншоты:

Время раздачи: 24/7
(до 5 скачавших)

Полицейская история 2013 на NoNaMe Club
[NNM-Club.me]_Policeyskaya.Istoriya.4.2013.BDRip.1080p.torrent
 Торрент: Платиновая раздача  Зарегистрирован
 
Скачать


Примагнититься
 Зарегистрирован:   04 Май 2014 16:41:17
 Размер:   8,86 GB  (
 Рейтинг:   4,7 (Голосов: 101)
 Поблагодарили:   454
 Проверка:   Оформление проверено модератором 05 Май 2014 07:12:08
Как cкачать  ·  Как раздать  ·  Правильно оформить  ·  Поднять ратио!  
Loading...
Dorothy
Стаж: 9 лет 10 мес.
Сообщений: 67
Ratio: 11,755
64.15%
Вот это новость! Я даже не знал о ее существовании)
Спасибо!!!
Kornaks
Стаж: 6 лет 1 мес.
Сообщений: 95
Ratio: 12,869
Раздал: 743 GB
Поблагодарили: 2682
100%
Откуда: Наш дом Россия
russia.gif
Вот это реально новость, с каких это пор Джеки Чан из комедий перешол во взрослые фильмы)

_________________
Кто не любит одиночества – тот не любит свободы, ибо лишь в одиночестве можно быть свободным.
Dorothy
Стаж: 9 лет 10 мес.
Сообщений: 67
Ratio: 11,755
64.15%
Есть пара сильных сцен, в какой то момент даже становится интересно, но в целом драмы не получилось.
Учитывая "миссию зодиак", опасаюсь намечающейся тенденции клепания фильмов на коленке.
"Новая Полицейская История" навсегда!)
MR Sergei ®
Uploaders 100+
 
Стаж: 7 лет 2 мес.
Сообщений: 3058
Ratio: 33K
Раздал: 302,4 TB
Поблагодарили: 549421
100%
Откуда: ЛНР, Краснодон
russia.gif
Файл заменён 04.05.2014, устранена ошибка. Просьба перекачать торрент файл. Приношу извинения за предоставленные неудобства. Приятного просмотра.
andrey1305
Стаж: 8 лет 5 мес.
Сообщений: 196
Ratio: 14,003
100%
хороший фильм, жаль время идёт и всё приходит к концу.
zhelya
Стаж: 8 лет 11 мес.
Сообщений: 1
Ratio: 5,279
0.93%
Фильм зацепил!!!! Джеки молодец!
xSav
Стаж: 8 лет 4 мес.
Сообщений: 20
Ratio: 4,655
0.32%
Когда будет дубляж кто знает ?
Iceberg15
Стаж: 6 лет 1 мес.
Сообщений: 139
Ratio: 7,549
9.9%
Откуда: Русский город
andrey1305 писал(а): Перейти к сообщению
жаль время идёт и всё приходит к концу.

а может всё только начинается.
Показать сообщения:   
Начать новую тему   Ответить на тему    Торрент-трекер NNM-Club -> Зарубежное кино -> Азиатское кино (HD, UHD, UHD-LQ) Часовой пояс: GMT + 3
Страница 1 из 1