Классический форум-трекер
canvas not supported
Нас вместе: 4 114 845

Прямая линия с Владимиром Путиным (2014.04.17) DVB [H.264]


Страницы:  1, 2, 3, 4  След. 
 
RSS
Начать новую тему   Эта тема закрыта, вы не можете писать ответы и редактировать сообщения.    Торрент-трекер NNM-Club -> Документалистика и Телепередачи -> Публицистика, политика и экономика
Автор Сообщение
svlesin ®
Модератор Документалистики/TV
RG Releasers
Релизер 25000+ Uploader 300+
 
Стаж: 10 лет 5 мес.
Сообщений: 33813
Ratio: 1842,314
Поблагодарили: 3254845
100%
russia.gif
Прямая линия с Владимиром Путиным (2014.04.17) DVB [H.264]
Режиссер / Телекомпания: Первый канал
Русское название: Прямая линия с Владимиром Путиным
Год выпуска: 2014
Жанр: Телепередача

Описание:
Специальная программа, в ходе которой президент отвечает на вопросы, касающиеся общественно-политической и социально-экономической жизни страны. Задавать вопросы могут не только приглашенные в студию программы гости, но и граждане в ходе прямых включений из городов России.
17.Апреля.2014, 12:00 мск. Прямая трансляция специальной программы «Прямая линия с Владимиром Путиным».
Первая «прямая линия» состоялась 24 декабря 2001 года. Запланированный лимит общения с россиянами в рамках «прямой линии» Путин превысил с первой же попытки: в 2001 году беседа растянулась на два с половиной часа вместо предполагавшихся полутора. В последующие годы он хоть на минуту, но увеличивал протяженность «линий», доведя их до трех с лишним часов. В 2009 году Путин взял новую высоту, преодолев планку в четыре часа. Год спустя он довел общение до четырех часов 26 минут, а в 2011 году установил абсолютный рекорд – четыре с половиной часа. В 2013 году все рекорды были побиты - его общение с россиянами длилось 4 часа 47 минут.

Продолжительность: ~ 03:56:03

Видеокодек: AVC
Битрейт видео: ~1717 kb/s
Размер кадра: 720 x 576
Качество видео: DVB
Аудиокодек: MP2, 2ch.
Битрейт аудио: 192 kb/s
Формат : MPEG-TS
Размер файла : 3,32 Гбайт
Продолжительность : 3 ч. 56 м.
Общий поток : 2011 Кбит/сек

Видео
Идентификатор : 1011 (0x3F3)
Идентификатор меню : 1 (0x1)
Формат : AVC
Формат/Информация : Advanced Video Codec
Профиль формата : Main@L3.0
Параметр CABAC формата : Да
Параметр ReFrames формата : 3 кадра
Идентификатор кодека : 27
Продолжительность : 3 ч. 56 м.
Битрейт : 1717 Кбит/сек
Ширина : 720 пикселей
Высота : 576 пикселей
Соотношение сторон : 16:9
Частота кадров : 25,000 кадров/сек
Стандарт вещания : Component
Цветовое пространство : YUV
Субдискретизация насыщенности : 4:2:0
Битовая глубина : 8 бит
Тип развёртки : Чересстрочная
Порядок развёртки : Верхнее поле первое
Бит/(Пиксели*Кадры) : 0.166
Размер потока : 2,83 Гбайт (85%)
Основные цвета : BT.470-6 System B, BT.470-6 System G, BT.601-6 625, BT.1358 625, BT.1700 625 PAL, BT.1700 625 SECAM
Характеристики трансфера : BT.470-6 System B, BT.470-6 System G
Коэффициенты матрицы : BT.470-6 System B, BT.470-6 System G, BT.601-6 625, BT.1358 625, BT.1700 625 PAL, BT.1700 625 SECAM, IEC 61966-2-4 601

Аудио
Идентификатор : 1012 (0x3F4)
Идентификатор меню : 1 (0x1)
Формат : MPEG Audio
Версия формата : Version 1
Профиль формата : Layer 2
Идентификатор кодека : 3
Продолжительность : 3 ч. 56 м.
Вид битрейта : Постоянный
Битрейт : 192 Кбит/сек
Каналы : 2 канала
Частота : 48,0 КГц
Метод сжатия : С потерями
Размер потока : 324 Мбайт (10%)
Язык : Russian
Скриншоты:

Время раздачи: 24/7. До первых 5 скачавших.
Прямая линия с Владимиром Путиным на NoNaMe Club
[NNM-Club.me]_Pryamaya liniya s Vladimirom Putinyim (2014.04.17)_DVB.ts.torrent
 Торрент:   Зарегистрирован
 
Зарегистрируйтесь и скачайте торрент!
16,8 KB
Free Leech
Примагнититься
 Зарегистрирован:   17 Апр 2014 16:10:46
 Размер:   3,32 GB  (
 Рейтинг:   3,4 (Голосов: 127)
 Поблагодарили:   212
 Проверка:   Оформление проверено модератором 17 Апр 2014 16:14:41
Как cкачать  ·  Как раздать  ·  Правильно оформить  ·  Поднять ратио!  

_________________
Уважаемые пользователи Клуба! От меня релизов больше не будет. Может быть, буду поддерживать «Обновляемые раздачи». Спасибо всем, кто благодарил меня и говорил/нажимал «Спасибо»!
serj-nemo
Стаж: 7 лет 5 мес.
Сообщений: 79
Ratio: 100,29
Поблагодарили: 7
100%
Откуда: СССР
ussr.gif
Вам еще не надоел этот ***
 !  Всем участникам форума запрещается:
2.1. Оскорблять участников форума в любой форме
2.2. Использовать в общении на форуме нецензурную брань или эвфемизмы
svlesin ®
Модератор Документалистики/TV
RG Releasers
Релизер 25000+ Uploader 300+
 
Стаж: 10 лет 5 мес.
Сообщений: 33813
Ratio: 1842,314
Поблагодарили: 3254845
100%
russia.gif
Инструкция для вменяемой части мирного населения - на время любой информационной войны

Не флудим, не оскорбляем и соблюдаем правила комментирования!!!
Кто не будет соблюдать данные правила - будут наказываться.

_________________
Уважаемые пользователи Клуба! От меня релизов больше не будет. Может быть, буду поддерживать «Обновляемые раздачи». Спасибо всем, кто благодарил меня и говорил/нажимал «Спасибо»!
Rommihail
Uploader 100+
Стаж: 8 лет 4 мес.
Сообщений: 477
Ratio: 3067,225
Поблагодарили: 12909
100%
russia.gif
Благодарю!
pavlvl
Стаж: 8 лет 7 мес.
Сообщений: 111
Ratio: 14,016
100%
Вряд ли, думаю, культурный и порядочный, уважающий себя человек станет это смотреть и слушать. :нет:
etoneyaneya
Стаж: 9 лет 5 мес.
Сообщений: 9
Ratio: 9,269
100%
russia.gif
Прямая линия с Владимиром Путиным (2014.04.17) опубликована на сайте 18/04/2014, это не новость, это уже история
Lunar3000
Стаж: 9 лет 5 мес.
Сообщений: 9
Ratio: 1,379
3.43%
Хоть и ненавижу Путина, но он Хоть может 2 слова связать, не точно Янык без языкий.
King3214
Стаж: 9 лет
Сообщений: 117
Ratio: 9,31
100%
Ненависть - признак бессилия!
silent_lab
Стаж: 9 лет 7 мес.
Сообщений: 38
Ratio: 3,098
100%
Спасибо за материал...
Остальным пользователям желаю глубокой вменяемости, при просмотре и оставлении постов..
ALEKSEI_adm
Стаж: 9 лет
Сообщений: 16
Ratio: 7,572
74.01%
Откуда: Минск
krevedko.png
Продолжительность: ~ 03:56:03
Лучше водки попить. В данном случае для здоровья мозга будет полезнее.
злойгном
Стаж: 9 лет 5 мес.
Сообщений: 234
Ratio: 2,535
100%
ussr.gif
pavlvl
Пусть украинские самозванцы проведут такую же прямую линию. Интересно было бы посмотреть , протянули бы они хоть один час без подсказок покровителей.
dimazzz01
Стаж: 10 лет 4 мес.
Сообщений: 1433
Ratio: 139,235
Раздал: 49,4 TB
100%
Откуда: с Севера
russia.gif
Я смотрел трансляцию, в принципе - довольно интересно, но нового ничего нет. Хотя некоторые вопросы были довольно провокационными. Вообще же, говорить можно все, что угодно. Народ у нас и голосует за язык и речи, а не за реального человека. За миф голосует в общем, который каждый выдумывает для себя сам, на основе той информации, которую человеку очень успешно и глубоко продуманно "поставляют" специально для этого обученные люди, использующие самые современные технологии.

_________________
andrwers
Стаж: 10 лет 7 мес.
Сообщений: 435
Ratio: 12,503
100%
pavlvl писал(а): Перейти к сообщению
Вряд ли, думаю, культурный и порядочный, уважающий себя человек станет это смотреть и слушать. :нет:

А если слушать, то ещё и адекватно воспринимать информацию, не говоря на "чёрное" - "белое". :да:

_________________
bob153370
Стаж: 7 лет 6 мес.
Сообщений: 345
Ratio: 11,349
100%
kazakhstan.gif
Цитата:
Народ у нас и голосует за язык и речи, а не за реального человека.


а где по другому?

_________________
Сталин не ушел в прошлое, он растворился в нашем будущем!
ser477
Стаж: 11 лет 2 мес.
Сообщений: 6618
Ratio: 1,94
63.54%
Откуда: РОССИЯ
russia.gif
Всем недоброжелателям ждать выборов президента. Многие не в восторге от его внутренней политики, но внешняя на высоте. Россия наконец то перестала позорно соглашаться с западом. Однополярный мир американцев рухнул. И это заслуга только одной России при покорном потакании остальных "независимых" стран.
Показать сообщения:   
Начать новую тему   Эта тема закрыта, вы не можете писать ответы и редактировать сообщения.    Торрент-трекер NNM-Club -> Документалистика и Телепередачи -> Публицистика, политика и экономика Часовой пояс: GMT + 3
Страницы:  1, 2, 3, 4  След.
Страница 1 из 4