Классический форум-трекер
canvas not supported
Нас вместе: 4 083 958
Платим за отзывы

Любимые сказки. Сборник мультфильмов. Выпуски 1 - 14. (1945-2000) 28хDVD5


Страницы:   Пред.  1, 2, 3 
 
RSS
Начать новую тему   Ответить на тему    Торрент-трекер NNM-Club -> Мультфильмы -> Отечественные Мультфильмы (HD, UHD, UHD-LQ, DVD, Сборники)
Автор Сообщение
almikl ®
Куратор Детского.
Модератор Видео.
RG Всё лучшее - детям!
Uploader 500+
 
Стаж: 12 лет 5 мес.
Сообщений: 4783
Ratio: 348,661
Поблагодарили: 108681
100%
Откуда: Дааалекое Подмосковье
russia.gif
Название: Любимые сказки. Сборник мультфильмов
Год выпуска: 1945-2000
Жанр: Мультфильм, кукольный, рисованный, детский
Выпущено: СССР, Россия, Союзмультфильм
Режиссер: Лев Атаманов, Михаил Цехановский, Ольга Ходатаева, Альберт Иванов, Александр Иванов (II), Александра Снежко-Блоцкая, Зинаида Брумберг, Валентина Брумберг, Дмитрий Бабиченко, Пётр Носов, Евгений Райковский, Леонид Амальрик
В ролях: Мария Бабанова, Георгий Милляр, Нина Никитина, Галина Новожилова, Вера Бендина, Александра Денисова, Михаил Яншин, Борис Андреев, Григорий Шпигель, Ирина Гошева, Юрий Хржановский, Юлия Юльская, Георгий Милляр, Ростислав Плятт, Георгий Вицин

Описание: Сборник содержит прекрасные отечественные мультфильмы, на которых выросло не одно поколение хороших людей...

Качество: DVD
Видео: PAL 4:3 (720x576) VBR
Аудио: Русский (Dolby AC3, 2 ch)
Продолжительность: 28 x ~ 10:25:12
Язык: Русский
Название: Любимые сказки. Сборник мультфильмов
Год выпуска: 1945-2000
Жанр: Мультфильм, кукольный, рисованный, детский
Выпущено: СССР, Россия, Союзмультфильм
Режиссер: Лев Атаманов, Михаил Цехановский, Ольга Ходатаева, Альберт Иванов, Александр Иванов (II), Александра Снежко-Блоцкая, Зинаида Брумберг, Валентина Брумберг, Дмитрий Бабиченко, Пётр Носов, Евгений Райковский, Леонид Амальрик
В ролях: Мария Бабанова, Георгий Милляр, Нина Никитина, Галина Новожилова, Вера Бендина, Александра Денисова, Михаил Яншин, Борис Андреев, Григорий Шпигель, Ирина Гошева, Юрий Хржановский, Юлия Юльская, Георгий Милляр, Ростислав Плятт, Георгий Вицин

Описание: Сборник содержит прекрасные отечественные мультфильмы, на которых выросло не одно поколение хороших людей...

Качество: DVD
Видео: PAL 4:3 (720x576) VBR
Аудио: Русский (Dolby AC3, 2 ch)
Продолжительность: ~ 12:25:12
Язык: Русский
01. Аленький цветочек
02. Сказка о рыбаке и рыбке
03. Царевна-лягушка
04. Сестрица Алёнушка и братец Иванушка
05. Гуси-лебеди
06. Золотая антилопа
07. Мойдодыр
08. Крашеный лис
09. Полкан и шавка
10. Чудесный колокольчик
11. Валидуб
12. Братья Лю
13. Лев и заяц
14. Соломенный бычок
15. Три мешка хитрости
16. Сердце храбреца
17. Сармико
18. Веселый огород
19. Чужой голос
20. На лесной эстраде

Диск 2

01. Стрела улетает в сказку
02. Сказка старого дуба
03. Карандаш и клякса - веселые охотники
04. Когда зажигаются ёлки
05. Машенькин концерт
06. Кукшка и скворец
07. Лиса-строитель
08. Таёжная сказка
09. Желтый аист
10. Чудо мельница
11. Олень и волк
12. Снеговик-почтовик
13. Дедушка и внучек
14. В лесной чаще
15. Крепыш
16. Павлиний хвост
17. Чемпион
18. Новогоднее путешествие
19. Топтыжка
20. Пластелиновый ёжик
21. Мальчик с пальчик
22. Мышонок Пик
23. Узелок на память
24. Бояка учится летать
25. Будь здоров Бояка
26. Сердце в пятках
27. Страшней Бояки зверя нет
28. Сегодня снова понедельник
29. Дед мороз и лето
30. Колобок
Title: Диск 1
Size: 4.26 Gb ( 4 469 870,00 KBytes ) - DVD-5
Enabled regions: 1, 2, 3, 4, 5, 6, 7, 8

VTS_01 :
Play Length: 06:06:44
Video: PAL 4:3 (352x576) VBR
Audio:
Russian (Dolby AC3, 6 ch)
General
Complete name : M:\tekushie\Любимые сказки\Любимые сказки 1 2х DVD-5\Диск 1\VIDEO_TS\VTS_01_3.VOB
Format : MPEG-PS
File size : 1 024 MiB
Duration : 11mn 7s
Overall bit rate mode : Variable
Overall bit rate : 12.9 Mbps

Video
ID : 224 (0xE0)
Format : MPEG Video
Format version : Version 2
Format profile : Main@Main
Format settings, BVOP : Yes
Format settings, Matrix : Custom
Format settings, GOP : M=3, N=15
Duration : 11mn 7s
Bit rate mode : Variable
Bit rate : 12.2 Mbps
Maximum bit rate : 9 400 Kbps
Width : 352 pixels
Height : 576 pixels
Display aspect ratio : 4:3
Frame rate : 25.000 fps
Standard : PAL
Color space : YUV
Chroma subsampling : 4:2:0
Bit depth : 8 bits
Scan type : Interlaced
Scan order : Bottom Field First
Compression mode : Lossy
Bits/(Pixel*Frame) : 2.412
Stream size : 973 MiB (95%)

Audio
ID : 189 (0xBD)-128 (0x80)
Format : AC-3
Format/Info : Audio Coding 3
Mode extension : CM (complete main)
Format settings, Endianness : Big
Muxing mode : DVD-Video
Duration : 11mn 7s
Bit rate mode : Constant
Bit rate : 384 Kbps
Channel(s) : 6 channels
Channel positions : Front: L C R, Side: L R, LFE
Sampling rate : 48.0 KHz
Bit depth : 16 bits
Compression mode : Lossy
Delay relative to video : -304ms
Stream size : 30.6 MiB (3%)

Menu
Бонусы: нет
Скриншоты:
Название: Любимые сказки. Сборник мультфильмов
Год выпуска: 1945-2000
Жанр: Мультфильм, кукольный, рисованный, детский
Выпущено: СССР, Россия, Союзмультфильм
Режиссер: Лев Атаманов, Михаил Цехановский, Ольга Ходатаева, Альберт Иванов, Александр Иванов (II), Александра Снежко-Блоцкая, Зинаида Брумберг, Валентина Брумберг, Дмитрий Бабиченко, Пётр Носов, Евгений Райковский, Леонид Амальрик
В ролях: Мария Бабанова, Георгий Милляр, Нина Никитина, Галина Новожилова, Вера Бендина, Александра Денисова, Михаил Яншин, Борис Андреев, Григорий Шпигель, Ирина Гошева, Юрий Хржановский, Юлия Юльская, Георгий Милляр, Ростислав Плятт, Георгий Вицин

Описание: Сборник содержит прекрасные отечественные мультфильмы, на которых выросло не одно поколение хороших людей...

Качество: DVD
Видео: PAL 4:3 (720x576) VBR
Аудио: Русский (Dolby AC3, 2 ch)
Продолжительность: ~ 12:25:12
Язык: Русский
DVD 1
Диск - 1
01. Ну, погоди! Выпуск 1
02. Ну, погоди! Выпуск 2
03. Ну, погоди! Выпуск 3
04. Ну, погоди! Выпуск 4
05. Ну, погоди! Выпуск 5
06. Ну, погоди! Выпуск 6
07. Ну, погоди! Выпуск 7
08. Ну, погоди! Выпуск 8
09. Ну, погоди! Выпуск 9
10. Ну, погоди! Выпуск 10
11. Ну, погоди! Выпуск 11
12. Ну, погоди! Выпуск 12
13. Ну, погоди! Выпуск 13
14. Ну, погоди! Выпуск 14
15. Ну, погоди! Выпуск 15
16. Ну, погоди! Выпуск 16
17. Трое из Простоквашино
18. Каникулы в Простоквашино
19. Зима в Простоквашино
20. Винни Пух
21. Винни Пух идет в гости
22. Винни Пухи день забот
23. Бременские музыканты
24. По следам бременских музыкантов
25. Новые бременские
26. Каникулы Бонифация
27. Катерок
28. Карусель: Мозаика
29. Карусель: Антошка
30. Карусель: Ну, погоди!
31. Карусель: Разгром
32. Карусель: Голубой метеорит
33. Карусель: Рыжий, рыжий, конопатый

Диск - 2
01. Как казаки кулеш варили
02. Как казаки в футбол играли
03. Как казаки невест выручали
04. Как казаки олимпийцами стали
05. Как казаки соль покупали
06. Как казаки мушкетерам помогали
07. Как казаки на свадьбе гуляли
08. Как казаки инопланетян встречали
09. Как казаки в хоккей играли
10. Волшебный клад
11. Машенька и медведь
12. Баранкин будь человеком
13. Дядя Миша
14. Мешок яблок
15. Про Сидорова Вову
16. Ивашка из дворца пионеров
17. Голубой щенок
18. Зайка - зазнайка
19. Оранжевое горлышко
20. Птичка Тари
21. Грибок - теремок
22. Кораблик
23. Паровозик из Ромашкова
24. Тимошкина елка
25. Снегурка
26. Мороз Иванович
27. Волк и теленок
Title: Диск 1
Size: 4.35 Gb ( 4 557 466,00 KBytes ) - DVD-5
Enabled regions: 1, 2, 3, 4, 5, 6, 7, 8

VTS_01 :
Play Length: 06:23:06
Video: PAL 4:3 (352x576) VBR
Audio:
Russian (Dolby AC3, 1 ch)
General
Complete name : M:\tekushie\Любимые сказки\Любимые сказки 2 2х DVD-5\Диск 1\VIDEO_TS\VTS_01_2.VOB
Format : MPEG-PS
File size : 1 024 MiB
Duration : 21mn 40s
Overall bit rate mode : Variable
Overall bit rate : 6 604 Kbps

Video
ID : 224 (0xE0)
Format : MPEG Video
Format version : Version 2
Format profile : Main@Main
Format settings, BVOP : Yes
Format settings, Matrix : Custom
Duration : 21mn 40s
Bit rate mode : Variable
Bit rate : 6 281 Kbps
Maximum bit rate : 9 600 Kbps
Width : 352 pixels
Height : 576 pixels
Display aspect ratio : 4:3
Frame rate : 25.000 fps
Standard : PAL
Color space : YUV
Chroma subsampling : 4:2:0
Bit depth : 8 bits
Scan type : Interlaced
Scan order : Top Field First
Compression mode : Lossy
Bits/(Pixel*Frame) : 1.239
Stream size : 974 MiB (95%)

Audio
ID : 189 (0xBD)-128 (0x80)
Format : AC-3
Format/Info : Audio Coding 3
Mode extension : CM (complete main)
Format settings, Endianness : Big
Muxing mode : DVD-Video
Duration : 21mn 40s
Bit rate mode : Constant
Bit rate : 192 Kbps
Channel(s) : 1 channel
Channel positions : Front: C
Sampling rate : 48.0 KHz
Bit depth : 16 bits
Compression mode : Lossy
Delay relative to video : -184ms
Stream size : 29.8 MiB (3%)

Menu
Бонусы: нет
Скриншоты:


Название: Любимые сказки. Сборник мультфильмов
Год выпуска: 1945-2000
Жанр: Мультфильм, кукольный, рисованный, детский
Выпущено: СССР, Россия, Союзмультфильм
Режиссер: Лев Атаманов, Михаил Цехановский, Ольга Ходатаева, Альберт Иванов, Александр Иванов (II), Александра Снежко-Блоцкая, Зинаида Брумберг, Валентина Брумберг, Дмитрий Бабиченко, Пётр Носов, Евгений Райковский, Леонид Амальрик
В ролях: Мария Бабанова, Георгий Милляр, Нина Никитина, Галина Новожилова, Вера Бендина, Александра Денисова, Михаил Яншин, Борис Андреев, Григорий Шпигель, Ирина Гошева, Юрий Хржановский, Юлия Юльская, Георгий Милляр, Ростислав Плятт, Георгий Вицин

Описание: Сборник содержит прекрасные отечественные мультфильмы, на которых выросло не одно поколение хороших людей...

Качество: DVD
Видео: PAL 4:3 (720x576) VBR
Аудио: Русский (Dolby AC3, 2 ch)
Продолжительность: ~ 10:25:12
Язык: Русский
Диск 1
01. Малыш и Карлсон
02. Карлсон вернулся

Кот Леопольд
03. Месть кота Леопольда
04. Клад кота Леопольда
05. Леопольда и золотая рыбка
06. День рождения Леопольда
07. Прогулка кота Леопольда
08. Лето кота Леопольда
09. Кот Леопольд во сне и наяву
10. Телевизор кота Леопольда
11. Поликлиника кота Леопольда
12. Автомобиль кота Леопольда

13. Петя и Красная Шапочка
14. Опять двойка

Волшебник изумрудного города
15. Элли в волшебной стране
16. Дорога из желтого кирпича
17. Изумрудный город
18. Королевство Бастинды
19. Разоблачение великого и ужасного
20. Тайна колдуньи Гингемы
21. Корабль старого моряка
22. Солдаты садоводы
23. Загадочная пещера
24. Элли встречается с друзьями

Диск 2
Маугли
0. Ракша
02. Похищение
03. Последняя охота Акелы
04. Битва
05. Возвращение к людям

06. Тайна третьей планеты
07. Прометей
08. Возвращение с Олимпа
09. Аргонавты
10. Персей
11. Геракл у Адмета
12. Незнайка на Луне
Title: Диск 1
Size: 4.35 Gb ( 4 560 126,00 KBytes ) - DVD-5
Enabled regions: 1, 2, 3, 4, 5, 6, 7, 8

VTS_01 :
Play Length: 00:18:34
Video: PAL 4:3 (352x576) VBR
Audio:
Russian (Dolby AC3, 6 ch)

VTS_02 :
Play Length: 00:19:11
Video: PAL 4:3 (352x576) VBR
Audio:
Russian (Dolby AC3, 6 ch)

VTS_03 :
Play Length: 00:10:03
Video: PAL 4:3 (352x576) VBR
Audio:
Russian (Dolby AC3, 2 ch)

VTS_04 :
Play Length: 00:03:59
Video: PAL 4:3 (352x576) VBR
Audio:
Russian (Dolby AC3, 2 ch)

VTS_05 :
Play Length: 00:15:29
Video: PAL 4:3 (352x576) VBR
Audio:
Russian (Dolby AC3, 2 ch)

VTS_06 :
Play Length: 00:09:55
Video: PAL 4:3 (352x576) VBR
Audio:
Russian (Dolby AC3, 2 ch)

VTS_07 :
Play Length: 00:09:28
Video: PAL 4:3 (352x576) VBR
Audio:
Russian (Dolby AC3, 2 ch)

VTS_08 :
Play Length: 00:09:46
Video: PAL 4:3 (352x576) VBR
Audio:
Russian (Dolby AC3, 2 ch)

VTS_09 :
Play Length: 00:09:58
Video: PAL 4:3 (352x576) VBR
Audio:
Russian (Dolby AC3, 2 ch)

VTS_10 :
Play Length: 00:06:52
Video: PAL 4:3 (352x576) VBR
Audio:
Russian (Dolby AC3, 2 ch)

VTS_11 :
Play Length: 00:09:38
Video: PAL 4:3 (352x576) VBR
Audio:
Russian (Dolby AC3, 2 ch)

VTS_12 :
Play Length: 00:09:44
Video: PAL 4:3 (352x576) VBR
Audio:
Russian (Dolby AC3, 2 ch)

VTS_13 :
Play Length: 00:18:25
Video: PAL 4:3 (352x576) VBR
Audio:
Russian (Dolby AC3, 6 ch)

VTS_14 :
Play Length: 00:20:09
Video: PAL 4:3 (352x576) VBR
Audio:
Russian (Dolby AC3, 6 ch)

VTS_15 :
Play Length: 00:23:34
Video: PAL 4:3 (352x576) VBR
Audio:
Russian (Dolby AC3, 6 ch)

VTS_16 :
Play Length: 00:18:40
Video: PAL 4:3 (352x576) VBR
Audio:
Russian (Dolby AC3, 6 ch)

VTS_17 :
Play Length: 00:18:21
Video: PAL 4:3 (352x576) VBR
Audio:
Russian (Dolby AC3, 6 ch)

VTS_18 :
Play Length: 00:17:40
Video: PAL 4:3 (352x576) VBR
Audio:
Russian (Dolby AC3, 6 ch)

VTS_19 :
Play Length: 00:19:20
Video: PAL 4:3 (352x576) VBR
Audio:
Russian (Dolby AC3, 6 ch)

VTS_20 :
Play Length: 00:21:47
Video: PAL 4:3 (352x576) VBR
Audio:
Russian (Dolby AC3, 6 ch)

VTS_21 :
Play Length: 00:17:14
Video: PAL 4:3 (352x576) VBR
Audio:
Russian (Dolby AC3, 6 ch)

VTS_22 :
Play Length: 00:18:03
Video: PAL 4:3 (352x576) VBR
Audio:
Russian (Dolby AC3, 6 ch)

VTS_23 :
Play Length: 00:19:27
Video: PAL 4:3 (352x576) VBR
Audio:
Russian (Dolby AC3, 6 ch)

VTS_24 :
Play Length: 00:17:21
Video: PAL 4:3 (352x576) VBR
Audio:
Russian (Dolby AC3, 6 ch)
General
Complete name : M:\tekushie\Любимые сказки\Любимые сказки 3 2х DVD-5\Диск 1\VIDEO_TS\VTS_01_1.VOB
Format : MPEG-PS
File size : 228 MiB
Duration : 567ms
Overall bit rate mode : Variable
Overall bit rate : 3 370 Mbps

Video
ID : 224 (0xE0)
Format : MPEG Video
Format version : Version 2
Format profile : Main@Main
Format settings, BVOP : Yes
Format settings, Matrix : Custom
Duration : 567ms
Bit rate mode : Variable
Maximum bit rate : 9 348 Kbps
Width : 352 pixels
Height : 576 pixels
Display aspect ratio : 4:3
Frame rate : 25.000 fps
Standard : PAL
Color space : YUV
Chroma subsampling : 4:2:0
Bit depth : 8 bits
Scan type : Interlaced
Scan order : Top Field First
Compression mode : Lossy

Audio
ID : 189 (0xBD)-128 (0x80)
Format : AC-3
Format/Info : Audio Coding 3
Mode extension : CM (complete main)
Format settings, Endianness : Big
Muxing mode : DVD-Video
Duration : 567ms
Bit rate mode : Constant
Bit rate : 448 Kbps
Channel(s) : 6 channels
Channel positions : Front: L C R, Side: L R, LFE
Sampling rate : 48.0 KHz
Bit depth : 16 bits
Compression mode : Lossy
Stream size : 31.0 KiB (0%)

Menu
Бонусы: нет
Скриншоты:
Название: Любимые сказки. Сборник мультфильмов
Год выпуска: 1945-2000
Жанр: Мультфильм, кукольный, рисованный, детский
Выпущено: СССР, Россия, Союзмультфильм
Режиссер: Лев Атаманов, Михаил Цехановский, Ольга Ходатаева, Альберт Иванов, Александр Иванов (II), Александра Снежко-Блоцкая, Зинаида Брумберг, Валентина Брумберг, Дмитрий Бабиченко, Пётр Носов, Евгений Райковский, Леонид Амальрик
В ролях: Мария Бабанова, Георгий Милляр, Нина Никитина, Галина Новожилова, Вера Бендина, Александра Денисова, Михаил Яншин, Борис Андреев, Григорий Шпигель, Ирина Гошева, Юрий Хржановский, Юлия Юльская, Георгий Милляр, Ростислав Плятт, Георгий Вицин

Описание: Сборник содержит прекрасные отечественные мультфильмы, на которых выросло не одно поколение хороших людей...

Качество: DVD
Видео: PAL 4:3 (720x576) VBR
Аудио: Русский (Dolby AC3, 2 ch)
Продолжительность: ~ 10:25:12
Язык: Русский
Диск 1
01. Приключения Буратино

Приключения Незнайки и его друзей
02. Коротышки из цветочного города
03. Незнайка за рулем
04. Незнайка музыкант
05. Незнайка поэт
06. Незнайка художник

07. Остров сокровищ
08. Соломенный бычок
09. Али-баба и сорок разбойников
10. Наследство волшебника Бахрама
11. Следствие ведут колобки 1
12. Следствие ведут колобки 2
13. Следствие ведут колобки 3
14. Следствие ведут колобки 4
15. Следствие ведут колобки: Следствие первое
16. Следствие ведут колобки: Похищение века

Диск 2
01. Алиса в стране Чудес
02. Алиса в Зазеркалье

Приключения барона Мюнхаузена
03. Чудесный остров
04. Меткий выстрел
05. Павлин
06. Между крокодилом и львом
07. Волк в упряжке

08. Приключения домовенка
09. Дом для Кузьки
10. Сказка для Наташи
11. Возвращене домовенка
12. Ель
13. Соловей
14. Свинопас
15. Домовой и хозяйка
16. Новое платье короля
17. Слон и муравей
18. Лев и заяц
19. Ворона и лисица
20. Кукушка и петух
21. Трубка и медведь
22. Стрекоза и муравей
23. Крылья, ноги и хвосты
24. Храбрый олененок
25. Умка
26. Как козлик землю держал
27. Бобик в гостях у Барбоса
28. Тигренок на подсолнухе
Title: Диск 1
Size: 4.35 Gb ( 4 559 094,00 KBytes ) - DVD-5
Enabled regions: 1, 2, 3, 4, 5, 6, 7, 8

VTS_01 :
Play Length: 01:04:22
Video: PAL 4:3 (352x576) VBR
Audio:
Russian (Dolby AC3, 6 ch)

VTS_02 :
Play Length: 00:17:07
Video: PAL 4:3 (352x576) VBR
Audio:
Russian (Dolby AC3, 2 ch)

VTS_03 :
Play Length: 00:17:57
Video: PAL 4:3 (352x576) VBR
Audio:
Russian (Dolby AC3, 2 ch)

VTS_04 :
Play Length: 00:15:19
Video: PAL 4:3 (352x576) VBR
Audio:
Russian (Dolby AC3, 2 ch)

VTS_05 :
Play Length: 00:16:50
Video: PAL 4:3 (352x576) VBR
Audio:
Russian (Dolby AC3, 2 ch)

VTS_06 :
Play Length: 00:19:16
Video: PAL 4:3 (352x576) VBR
Audio:
Russian (Dolby AC3, 2 ch)

VTS_07 :
Play Length: 01:46:47
Video: PAL 4:3 (352x576) VBR
Audio:
Russian (Dolby AC3, 2 ch)

VTS_08 :
Play Length: 00:10:10
Video: PAL 4:3 (352x576) VBR
Audio:
Russian (Dolby AC3, 2 ch)

VTS_09 :
Play Length: 00:28:57
Video: PAL 4:3 (352x576) VBR
Audio:
Russian (Dolby AC3, 2 ch)

VTS_10 :
Play Length: 00:18:45
Video: PAL 4:3 (352x576) VBR
Audio:
Russian (Dolby AC3, 2 ch)

VTS_11 :
Play Length: 00:06:38
Video: PAL 4:3 (352x576) VBR
Audio:
Russian (Dolby AC3, 6 ch)

VTS_12 :
Play Length: 00:03:43
Video: PAL 4:3 (352x576) VBR
Audio:
Russian (Dolby AC3, 6 ch)

VTS_13 :
Play Length: 00:05:30
Video: PAL 4:3 (352x576) VBR
Audio:
Russian (Dolby AC3, 6 ch)

VTS_14 :
Play Length: 00:04:43
Video: PAL 4:3 (352x576) VBR
Audio:
Russian (Dolby AC3, 6 ch)

VTS_15 :
Play Length: 00:18:47
Video: PAL 4:3 (352x576) VBR
Audio:
Russian (Dolby AC3, 6 ch)

VTS_16 :
Play Length: 00:10:12
Video: PAL 4:3 (352x576) VBR
Audio:
Russian (Dolby AC3, 6 ch)
General
Complete name : M:\tekushie\Любимые сказки\Любимые сказки 4 2х DVD-5\Диск 1\VIDEO_TS\VTS_01_1.VOB
Format : MPEG-PS
File size : 784 MiB
Duration : 623ms
Overall bit rate mode : Variable
Overall bit rate : 0 bps

Video
ID : 224 (0xE0)
Format : MPEG Video
Format version : Version 2
Format profile : Main@Main
Format settings, BVOP : Yes
Format settings, Matrix : Custom
Duration : 623ms
Bit rate mode : Variable
Maximum bit rate : 9 348 Kbps
Width : 352 pixels
Height : 576 pixels
Display aspect ratio : 4:3
Frame rate : 25.000 fps
Standard : PAL
Color space : YUV
Chroma subsampling : 4:2:0
Bit depth : 8 bits
Scan type : Interlaced
Scan order : Top Field First
Compression mode : Lossy

Audio
ID : 189 (0xBD)-128 (0x80)
Format : AC-3
Format/Info : Audio Coding 3
Mode extension : CM (complete main)
Format settings, Endianness : Big
Muxing mode : DVD-Video
Duration : 623ms
Bit rate mode : Constant
Bit rate : 448 Kbps
Channel(s) : 6 channels
Channel positions : Front: L C R, Side: L R, LFE
Sampling rate : 48.0 KHz
Bit depth : 16 bits
Compression mode : Lossy
Stream size : 34.1 KiB (0%)

Menu
Бонусы: нет
Скриншоты:
Название: Любимые сказки. Сборник мультфильмов
Год выпуска: 1945-2000
Жанр: Мультфильм, кукольный, рисованный, детский
Выпущено: СССР, Россия, Союзмультфильм
Режиссер: Лев Атаманов, Михаил Цехановский, Ольга Ходатаева, Альберт Иванов, Александр Иванов (II), Александра Снежко-Блоцкая, Зинаида Брумберг, Валентина Брумберг, Дмитрий Бабиченко, Пётр Носов, Евгений Райковский, Леонид Амальрик
В ролях: Мария Бабанова, Георгий Милляр, Нина Никитина, Галина Новожилова, Вера Бендина, Александра Денисова, Михаил Яншин, Борис Андреев, Григорий Шпигель, Ирина Гошева, Юрий Хржановский, Юлия Юльская, Георгий Милляр, Ростислав Плятт, Георгий Вицин

Описание: Сборник содержит прекрасные отечественные мультфильмы, на которых выросло не одно поколение хороших людей...

Качество: DVD
Видео: PAL 4:3 (720x576) VBR
Аудио: Русский (Dolby AC3, 2 ch)
Продолжительность: ~ 10:25:12
Язык: Русский
Диск 1
01. Доктор Айболит и его звери
02. Бармалей и морские пираты
03. Варвара - злая сестра Айболита
04. Коварный план Бармалея
05. Айболит спешит на помощь
06. Крокодил и солнце
07. Спасибо, доктор

08. 38 попугаев
09. Как лечить удава
10. Куда идет слоненок
11. Бабушка удава
12. Привет мартышке
13. А вдруг получится
14. Зарядка для хвоста
15. Завтра будет завтра
16. Великое закрытие
17. Наглядное пособие

18. Ушастик
19. Когда Медвежонок проснется
20. Как Ушастик хотел вырасти
21. Как Гусенок потерялся
22. Таинственная пропажа
23. Как Гусенок на лису охотился
24. Неуловимый Фунтик
25. Фунтик и сыщики
26. Фунтик и старушка с усами
27. Фунтик в цирке
28. Боцман и попугай. Серия 1
29. Боцман и попугай. Серия 2
30. Боцман и попугай. Серия 3
31. Боцман и попугай. Серия 4
32. Боцман и попугай. Серия 5
33. Про Веру и Анфису
34. Вера и Анфиса тушат пожар
35. Вера и Анфиса на уроке в школе
36. Бюро находок. Серия 1
37. Бюро находок. Серия 2
38. Бюро находок. Серия 3
39. Бюро находок. Серия 4

Диск 2
01. Василиса Прекрасная
02. Серая шейка
03. Кошкин дом
04. Кто сказал мяу?
05. Кот, котрый гулял сам по себе
06. Чучело - мяучело
07. Котенок с улицы Лизюкова
08. Проделки Рамзеса
09. Братец Кролик и братец Лис
10. В лесу родилась елочка
11. В Мумми - Дол приходит осень
12. Все дело в шляпе
13. Аист
14. Ананси
15. Пес и кот
16. Гадкий утеное к
17. Вересковый мед
18. Вреднюга
19. В стране невыученных уроков
20. Ваня и крокодил
21. Варежка
22. Аврора
23. Большой подземный бал
24. Времена года
25. Второе Я
Title: Диск 1
Size: 4.37 Gb ( 4 578 774,00 KBytes ) - DVD-5
Enabled regions: 1, 2, 3, 4, 5, 6, 7, 8

VTS_01 :
Play Length: 00:09:38
Video: PAL 4:3 (352x576) VBR
Audio:
Russian (Dolby AC3, 2 ch)

VTS_02 :
Play Length: 00:09:33
Video: PAL 4:3 (352x576) VBR
Audio:
Russian (Dolby AC3, 2 ch)

VTS_03 :
Play Length: 00:09:24
Video: PAL 4:3 (352x576) VBR
Audio:
Russian (Dolby AC3, 2 ch)

VTS_04 :
Play Length: 00:09:47
Video: PAL 4:3 (352x576) VBR
Audio:
Russian (Dolby AC3, 2 ch)

VTS_05 :
Play Length: 00:09:39
Video: PAL 4:3 (352x576) VBR
Audio:
Russian (Dolby AC3, 2 ch)

VTS_06 :
Play Length: 00:09:23
Video: PAL 4:3 (352x576) VBR
Audio:
Russian (Dolby AC3, 2 ch)

VTS_07 :
Play Length: 00:09:51
Video: PAL 4:3 (352x576) VBR
Audio:
Russian (Dolby AC3, 2 ch)

VTS_08 :
Play Length: 00:08:00
Video: PAL 4:3 (352x576) VBR
Audio:
Russian (Dolby AC3, 2 ch)

VTS_09 :
Play Length: 00:09:22
Video: PAL 4:3 (352x576) VBR
Audio:
Russian (Dolby AC3, 2 ch)

VTS_10 :
Play Length: 00:08:07
Video: PAL 4:3 (352x576) VBR
Audio:
Russian (Dolby AC3, 2 ch)

VTS_11 :
Play Length: 00:07:47
Video: PAL 4:3 (352x576) VBR
Audio:
Russian (Dolby AC3, 2 ch)

VTS_12 :
Play Length: 00:09:07
Video: PAL 4:3 (352x576) VBR
Audio:
Russian (Dolby AC3, 2 ch)

VTS_13 :
Play Length: 00:06:46
Video: PAL 4:3 (352x576) VBR
Audio:
Russian (Dolby AC3, 2 ch)

VTS_14 :
Play Length: 00:09:38
Video: PAL 4:3 (352x576) VBR
Audio:
Russian (Dolby AC3, 2 ch)

VTS_15 :
Play Length: 00:09:01
Video: PAL 4:3 (352x576) VBR
Audio:
Russian (Dolby AC3, 2 ch)

VTS_16 :
Play Length: 00:09:01
Video: PAL 4:3 (352x576) VBR
Audio:
Russian (Dolby AC3, 2 ch)

VTS_17 :
Play Length: 00:09:26
Video: PAL 4:3 (352x576) VBR
Audio:
Russian (Dolby AC3, 2 ch)

VTS_18 :
Play Length: 00:15:28
Video: PAL 4:3 (352x576) VBR
Audio:
Russian (Dolby AC3, 2 ch)

VTS_19 :
Play Length: 00:15:39
Video: PAL 4:3 (352x576) VBR
Audio:
Russian (Dolby AC3, 2 ch)

VTS_20 :
Play Length: 00:06:40
Video: PAL 4:3 (352x576) VBR
Audio:
Russian (Dolby AC3, 2 ch)

VTS_21 :
Play Length: 00:02:39
Video: PAL 4:3 (352x576) VBR
Audio:
Russian (Dolby AC3, 2 ch)

VTS_22 :
Play Length: 00:09:08
Video: PAL 4:3 (352x576) VBR
Audio:
Russian (Dolby AC3, 2 ch)

VTS_23 :
Play Length: 00:08:49
Video: PAL 4:3 (352x576) VBR
Audio:
Russian (Dolby AC3, 2 ch)

VTS_24 :
Play Length: 00:10:09
Video: PAL 4:3 (352x576) VBR
Audio:
Russian (Dolby AC3, 2 ch)

VTS_25 :
Play Length: 00:10:03
Video: PAL 4:3 (352x576) VBR
Audio:
Russian (Dolby AC3, 2 ch)

VTS_26 :
Play Length: 00:09:53
Video: PAL 4:3 (352x576) VBR
Audio:
Russian (Dolby AC3, 2 ch)

VTS_27 :
Play Length: 00:09:21
Video: PAL 4:3 (352x576) VBR
Audio:
Russian (Dolby AC3, 2 ch)

VTS_28 :
Play Length: 00:09:10
Video: PAL 4:3 (352x576) VBR
Audio:
Russian (Dolby AC3, 2 ch)

VTS_29 :
Play Length: 00:09:29
Video: PAL 4:3 (352x576) VBR
Audio:
Russian (Dolby AC3, 2 ch)

VTS_30 :
Play Length: 00:09:57
Video: PAL 4:3 (352x576) VBR
Audio:
Russian (Dolby AC3, 2 ch)

VTS_31 :
Play Length: 00:09:10
Video: PAL 4:3 (352x576) VBR
Audio:
Russian (Dolby AC3, 2 ch)

VTS_32 :
Play Length: 00:10:00
Video: PAL 4:3 (352x576) VBR
Audio:
Russian (Dolby AC3, 2 ch)

VTS_33 :
Play Length: 00:08:54
Video: PAL 4:3 (352x576) VBR
Audio:
Russian (Dolby AC3, 2 ch)

VTS_34 :
Play Length: 00:08:46
Video: PAL 4:3 (352x576) VBR
Audio:
Russian (Dolby AC3, 2 ch)

VTS_35 :
Play Length: 00:09:10
Video: PAL 4:3 (352x576) VBR
Audio:
Russian (Dolby AC3, 2 ch)

VTS_36 :
Play Length: 00:09:12
Video: PAL 4:3 (352x576) VBR
Audio:
Russian (Dolby AC3, 2 ch)

VTS_37 :
Play Length: 00:07:27
Video: PAL 4:3 (352x576) VBR
Audio:
Russian (Dolby AC3, 2 ch)

VTS_38 :
Play Length: 00:08:39
Video: PAL 4:3 (352x576) VBR
Audio:
Russian (Dolby AC3, 2 ch)

VTS_39 :
Play Length: 00:08:22
Video: PAL 4:3 (352x576) VBR
Audio:
Russian (Dolby AC3, 2 ch)
General
Complete name : M:\tekushie\Любимые сказки\Любимые сказки 5 2х DVD-5\Диск 1\VIDEO_TS\VTS_01_1.VOB
Format : MPEG-PS
File size : 117 MiB
Duration : 671ms
Overall bit rate mode : Variable
Overall bit rate : 1 465 Mbps

Video
ID : 224 (0xE0)
Format : MPEG Video
Format version : Version 2
Format profile : Main@Main
Format settings, BVOP : Yes
Format settings, Matrix : Custom
Duration : 671ms
Bit rate mode : Variable
Maximum bit rate : 9 600 Kbps
Width : 352 pixels
Height : 576 pixels
Display aspect ratio : 4:3
Frame rate : 25.000 fps
Standard : PAL
Color space : YUV
Chroma subsampling : 4:2:0
Bit depth : 8 bits
Scan type : Progressive
Compression mode : Lossy

Audio
ID : 189 (0xBD)-128 (0x80)
Format : AC-3
Format/Info : Audio Coding 3
Mode extension : CM (complete main)
Format settings, Endianness : Big
Muxing mode : DVD-Video
Duration : 63ms
Bit rate mode : Constant
Bit rate : 192 Kbps
Channel(s) : 2 channels
Channel positions : Front: L R
Sampling rate : 48.0 KHz
Bit depth : 16 bits
Compression mode : Lossy
Stream size : 1.48 KiB (0%)

Menu
Бонусы: нет
Скриншоты:
Название: Любимые сказки. Сборник мультфильмов
Год выпуска: 1945-2000
Жанр: Мультфильм, кукольный, рисованный, детский
Выпущено: СССР, Россия, Союзмультфильм
Режиссер: Лев Атаманов, Михаил Цехановский, Ольга Ходатаева, Альберт Иванов, Александр Иванов (II), Александра Снежко-Блоцкая, Зинаида Брумберг, Валентина Брумберг, Дмитрий Бабиченко, Пётр Носов, Евгений Райковский, Леонид Амальрик
В ролях: Мария Бабанова, Георгий Милляр, Нина Никитина, Галина Новожилова, Вера Бендина, Александра Денисова, Михаил Яншин, Борис Андреев, Григорий Шпигель, Ирина Гошева, Юрий Хржановский, Юлия Юльская, Георгий Милляр, Ростислав Плятт, Георгий Вицин

Описание: Сборник содержит прекрасные отечественные мультфильмы, на которых выросло не одно поколение хороших людей...

Качество: DVD
Видео: PAL 4:3 (720x576) VBR
Аудио: Русский (Dolby AC3, 2 ch)
Продолжительность: ~ 10:25:12
Язык: Русский
Диск 1
01. Конек-Горбунок
02. Сказка о мертвой царевне и семи богатырях
03. Снегурочка
04. Волк и семеро козлят
05. Волчище - серый хвостище
06. Дед Мороз и серый волк
07. Великолепный Гоша. История 1
08. Великолепный Гоша. История 2
09. Великолепный Гоша. История 3
10. Великолепный Гоша. История 4
11. Великолепный Гоша. История 5
12. Великолепный Гоша. История 6
13. Великолепный Гоша. История 7
14. Великолепный Гоша. История 8
15. Великолепный Гоша. История 9
16. Великолепный Гоша. История 10
17. Крашеный лис
18. Лиса и дрозд
19. Лиса и волк
20. Как лиса зайца догоняла
21. Олешка - белые рожки
22. Растрепанный воробей
23. Котенок
24. На масленице
25. Сапожникова жена
26. Чужой праздник
27. Одуванчик толстые - щечки
28. Три типа и скрипач
29. Пластилиновая ворона

Диск 2
01. Приключения капитана Врунгеля. Серия 1
02. Приключения капитана Врунгеля. Серия 2
03. Приключения капитана Врунгеля. Серия 3
04. Приключения капитана Врунгеля. Серия 4
05. Приключения капитана Врунгеля. Серия 5
06. Приключения капитана Врунгеля. Серия 6
07. Приключения капитана Врунгеля. Серия 7
08. Приключения капитана Врунгеля. Серия 8
09. Приключения капитана Врунгеля. Серия 9
10. Приключения капитана Врунгеля. Серия 10
11. Приключения капитана Врунгеля. Серия 11
12. Приключения капитана Врунгеля. Серия 12
13. Приключения капитана Врунгеля. Серия 13
14. Сказка о потерянном времени
15. Полет на луну
16. Каштанка
17. Янтарный замок
18. Крошка Енот
19. Дедушкина дудочка
20. Ракушка
21. Крем-брюле
22. Корабль пустыни
23. Солнышко на нитке
24. Как львенок и черепаха пели песню
25. Мы за солнышком идем
26. Радуга
27. Мышонок и красное солнышко
28. Желтик
29. Муравьишка - хвастунишка
30. Песенка радости
Title: Диск 1
Size: 4.29 Gb ( 4 503 218,00 KBytes ) - DVD-5
Enabled regions: 1, 2, 3, 4, 5, 6, 7, 8

VTS_01 :
Play Length: 00:55:04
Video: PAL 4:3 (352x576) VBR
Audio:
Russian (Dolby AC3, 2 ch)

VTS_02 :
Play Length: 00:29:59
Video: PAL 4:3 (352x576) VBR
Audio:
Russian (Dolby AC3, 2 ch)

VTS_03 :
Play Length: 01:05:07
Video: PAL 4:3 (352x576) VBR
Audio:
Russian (Dolby AC3, 2 ch)

VTS_04 :
Play Length: 00:10:15
Video: PAL 4:3 (352x576) VBR
Audio:
Russian (Dolby AC3, 2 ch)

VTS_05 :
Play Length: 00:09:25
Video: PAL 4:3 (352x576) VBR
Audio:
Russian (Dolby AC3, 2 ch)

VTS_06 :
Play Length: 00:16:51
Video: PAL 4:3 (352x576) VBR
Audio:
Russian (Dolby AC3, 2 ch)

VTS_07 :
Play Length: 00:06:42
Video: PAL 4:3 (352x576) VBR
Audio:
Russian (Dolby AC3, 2 ch)

VTS_08 :
Play Length: 00:04:40
Video: PAL 4:3 (352x576) VBR
Audio:
Russian (Dolby AC3, 2 ch)

VTS_09 :
Play Length: 00:04:14
Video: PAL 4:3 (352x576) VBR
Audio:
Russian (Dolby AC3, 2 ch)

VTS_10 :
Play Length: 00:04:39
Video: PAL 4:3 (352x576) VBR
Audio:
Russian (Dolby AC3, 2 ch)

VTS_11 :
Play Length: 00:02:59
Video: PAL 4:3 (352x576) VBR
Audio:
Russian (Dolby AC3, 2 ch)

VTS_12 :
Play Length: 00:04:26
Video: PAL 4:3 (352x576) VBR
Audio:
Russian (Dolby AC3, 2 ch)

VTS_13 :
Play Length: 00:05:01
Video: PAL 4:3 (352x576) VBR
Audio:
Russian (Dolby AC3, 2 ch)

VTS_14 :
Play Length: 00:07:34
Video: PAL 4:3 (352x576) VBR
Audio:
Russian (Dolby AC3, 2 ch)

VTS_15 :
Play Length: 00:04:54
Video: PAL 4:3 (352x576) VBR
Audio:
Russian (Dolby AC3, 2 ch)

VTS_16 :
Play Length: 00:08:06
Video: PAL 4:3 (352x576) VBR
Audio:
Russian (Dolby AC3, 2 ch)

VTS_17 :
Play Length: 00:10:06
Video: PAL 4:3 (352x576) VBR
Audio:
Romanian (Dolby AC3, 2 ch)

VTS_18 :
Play Length: 00:14:38
Video: PAL 4:3 (352x576) VBR
Audio:
Russian (Dolby AC3, 2 ch)

VTS_19 :
Play Length: 00:10:16
Video: PAL 4:3 (352x576) VBR
Audio:
Russian (Dolby AC3, 2 ch)

VTS_20 :
Play Length: 00:08:44
Video: PAL 4:3 (352x576) VBR
Audio:
Russian (Dolby AC3, 2 ch)

VTS_21 :
Play Length: 00:09:22
Video: PAL 4:3 (352x576) VBR
Audio:
Russian (Dolby AC3, 2 ch)

VTS_22 :
Play Length: 00:18:26
Video: PAL 4:3 (352x576) VBR
Audio:
Russian (Dolby AC3, 2 ch)

VTS_23 :
Play Length: 00:05:45
Video: PAL 4:3 (352x576) VBR
Audio:
Russian (Dolby AC3, 2 ch)

VTS_24 :
Play Length: 00:18:21
Video: PAL 4:3 (352x576) VBR
Audio:
Russian (Dolby AC3, 2 ch)

VTS_25 :
Play Length: 00:09:39
Video: PAL 4:3 (352x576) VBR
Audio:
Russian (Dolby AC3, 2 ch)

VTS_26 :
Play Length: 00:07:34
Video: PAL 4:3 (352x576) VBR
Audio:
Russian (Dolby AC3, 2 ch)

VTS_27 :
Play Length: 00:06:33
Video: PAL 4:3 (352x576) VBR
Audio:
Russian (Dolby AC3, 2 ch)

VTS_28 :
Play Length: 00:07:32
Video: PAL 4:3 (352x576) VBR
Audio:
Russian (Dolby AC3, 2 ch)

VTS_29 :
Play Length: 00:04:59
Video: PAL 4:3 (352x576) VBR
Audio:
Russian (Dolby AC3, 2 ch)
General
Complete name : M:\tekushie\Любимые сказки\Любимые сказки 6 2х DVD-5\Диск 1\VIDEO_TS\VTS_01_1.VOB
Format : MPEG-PS
File size : 586 MiB
Duration : 647ms
Overall bit rate mode : Variable
Overall bit rate : 0 bps

Video
ID : 224 (0xE0)
Format : MPEG Video
Format version : Version 2
Format profile : Main@Main
Format settings, BVOP : Yes
Format settings, Matrix : Custom
Duration : 647ms
Bit rate mode : Variable
Maximum bit rate : 9 568 Kbps
Width : 352 pixels
Height : 576 pixels
Display aspect ratio : 4:3
Frame rate : 25.000 fps
Standard : PAL
Color space : YUV
Chroma subsampling : 4:2:0
Bit depth : 8 bits
Scan type : Interlaced
Scan order : Top Field First
Compression mode : Lossy

Audio
ID : 189 (0xBD)-128 (0x80)
Format : AC-3
Format/Info : Audio Coding 3
Mode extension : CM (complete main)
Format settings, Endianness : Big
Muxing mode : DVD-Video
Duration : 31ms
Bit rate mode : Constant
Bit rate : 224 Kbps
Channel(s) : 2 channels
Channel positions : Front: L R
Sampling rate : 48.0 KHz
Bit depth : 16 bits
Compression mode : Lossy
Stream size : 868 Bytes (0%)

Menu
Бонусы: нет
Скриншоты:
Название: Любимые сказки. Сборник мультфильмов
Год выпуска: 1945-2000
Жанр: Мультфильм, кукольный, рисованный, детский
Выпущено: СССР, Россия, Союзмультфильм
Режиссер: Лев Атаманов, Михаил Цехановский, Ольга Ходатаева, Альберт Иванов, Александр Иванов (II), Александра Снежко-Блоцкая, Зинаида Брумберг, Валентина Брумберг, Дмитрий Бабиченко, Пётр Носов, Евгений Райковский, Леонид Амальрик
В ролях: Мария Бабанова, Георгий Милляр, Нина Никитина, Галина Новожилова, Вера Бендина, Александра Денисова, Михаил Яншин, Борис Андреев, Григорий Шпигель, Ирина Гошева, Юрий Хржановский, Юлия Юльская, Георгий Милляр, Ростислав Плятт, Георгий Вицин

Описание: Сборник содержит прекрасные отечественные мультфильмы, на которых выросло не одно поколение хороших людей...

Качество: DVD
Видео: PAL 4:3 (720x576) VBR
Аудио: Русский (Dolby AC3, 2 ch)
Продолжительность: ~ 10:25:12
Язык: Русский
Диск 1
01. Необыкновенный матч
02. Старые знакомые
03. Шайбу! Шайбу!
04. Матч-реванш
05. Метеор на ринге
06. Футбольные звезды
07. Талант и поклонники
08. Дядя Степа - милиционер
09. Опасная шалость
10. Следы на асфальте
11. Следопыт
12. Бравый инспектор Мамочкин
13. Медвежонок на дороге
14. Можно и нельзя
15. Дорожная сказка
16. Лягушка - путешественница
17. Приключения Хомы
18. Раз - горох, два горох…
19. Попался, который кусался!
20. Он попался!
21. Страшная история
22. На воде
23. Приключения на плоту
24. По дороге с облаками
25. Подарок для слона
26. Клад
27. Мотылек
28. Сказка о старом эхо
29. Большой секрет для маленькой компании
30. Филиппок

Диск 2
01. Ночь перед Рождеством
02. Пропавшая грамота
03. Приключения кузнечика Кузи 1
04. Приключения кузнечика Кузи 2
05. Муха-цокотуха
06. Стрекоза и муровей
07. Путешествие муровья
08. Первая скрипка
09. Пчелка жу-жу-жу
10. Муравьишка - хвастунишка
11. Лесной концерт
12. Мишка задира
13. Лесная история
14. Три медведя
15. Машенька и медведь
16. Чьи в лесу шишки?
17. Лиса, медведь и мотоцикл с коляской
18. Бобры идут по следу
19. Лесная хроника
20. На лесной тропе
21. Ровно в три пятнадцать…
22. Самый, самый, самый, самый
Title: Диск 1
Size: 4.35 Gb ( 4 561 570,00 KBytes ) - DVD-5
Enabled regions: 1, 2, 3, 4, 5, 6, 7, 8

VTS_01 :
Play Length: 00:19:50
Video: PAL 4:3 (352x576) VBR
Audio:
Russian (Dolby AC3, 6 ch)

VTS_02 :
Play Length: 00:20:15
Video: PAL 4:3 (352x576) VBR
Audio:
Russian (Dolby AC3, 6 ch)

VTS_03 :
Play Length: 00:20:13
Video: PAL 4:3 (352x576) VBR
Audio:
Russian (Dolby AC3, 6 ch)

VTS_04 :
Play Length: 00:19:36
Video: PAL 4:3 (352x576) VBR
Audio:
Russian (Dolby AC3, 6 ch)

VTS_05 :
Play Length: 00:18:55
Video: PAL 4:3 (352x576) VBR
Audio:
Russian (Dolby AC3, 6 ch)

VTS_06 :
Play Length: 00:17:53
Video: PAL 4:3 (352x576) VBR
Audio:
Russian (Dolby AC3, 6 ch)

VTS_07 :
Play Length: 00:09:34
Video: PAL 4:3 (352x576) VBR
Audio:
Russian (Dolby AC3, 6 ch)

VTS_08 :
Play Length: 00:18:40
Video: PAL 4:3 (352x576) VBR
Audio:
Russian (Dolby AC3, 2 ch)

VTS_09 :
Play Length: 00:09:54
Video: PAL 4:3 (352x576) VBR
Audio:
Russian (Dolby AC3, 2 ch)

VTS_10 :
Play Length: 00:15:58
Video: PAL 4:3 (352x576) VBR
Audio:
Russian (Dolby AC3, 2 ch)

VTS_11 :
Play Length: 00:09:24
Video: PAL 4:3 (352x576) VBR
Audio:
Russian (Dolby AC3, 2 ch)

VTS_12 :
Play Length: 00:07:13
Video: PAL 4:3 (352x576) VBR
Audio:
Russian (Dolby AC3, 2 ch)

VTS_13 :
Play Length: 00:09:10
Video: PAL 4:3 (352x576) VBR
Audio:
Russian (Dolby AC3, 2 ch)

VTS_14 :
Play Length: 00:18:19
Video: PAL 4:3 (352x576) VBR
Audio:
Russian (Dolby AC3, 2 ch)

VTS_15 :
Play Length: 00:09:53
Video: PAL 4:3 (352x576) VBR
Audio:
Russian (Dolby AC3, 2 ch)

VTS_16 :
Play Length: 00:17:24
Video: PAL 4:3 (352x576) VBR
Audio:
Russian (Dolby AC3, 2 ch)

VTS_17 :
Play Length: 00:09:04
Video: PAL 4:3 (352x576) VBR
Audio:
Russian (Dolby AC3, 2 ch)

VTS_18 :
Play Length: 00:07:31
Video: PAL 4:3 (352x576) VBR
Audio:
Russian (Dolby AC3, 2 ch)

VTS_19 :
Play Length: 00:09:16
Video: PAL 4:3 (352x576) VBR
Audio:
Russian (Dolby AC3, 2 ch)

VTS_20 :
Play Length: 00:09:25
Video: PAL 4:3 (352x576) VBR
Audio:
Russian (Dolby AC3, 2 ch)

VTS_21 :
Play Length: 00:07:26
Video: PAL 4:3 (352x576) VBR
Audio:
Russian (Dolby AC3, 2 ch)

VTS_22 :
Play Length: 00:07:52
Video: PAL 4:3 (352x576) VBR
Audio:
Russian (Dolby AC3, 2 ch)

VTS_23 :
Play Length: 00:09:26
Video: PAL 4:3 (352x576) VBR
Audio:
Russian (Dolby AC3, 2 ch)

VTS_24 :
Play Length: 00:08:53
Video: PAL 4:3 (352x576) VBR
Audio:
Russian (Dolby AC3, 2 ch)

VTS_25 :
Play Length: 00:09:58
Video: PAL 4:3 (352x576) VBR
Audio:
Russian (Dolby AC3, 2 ch)

VTS_26 :
Play Length: 00:09:13
Video: PAL 4:3 (352x576) VBR
Audio:
Russian (Dolby AC3, 2 ch)

VTS_27 :
Play Length: 00:08:01
Video: PAL 4:3 (352x576) VBR
Audio:
Russian (Dolby AC3, 2 ch)

VTS_28 :
Play Length: 00:06:21
Video: PAL 4:3 (352x576) VBR
Audio:
Russian (Dolby AC3, 2 ch)

VTS_29 :
Play Length: 00:16:08
Video: PAL 4:3 (352x576) VBR
Audio:
Russian (Dolby AC3, 2 ch)

VTS_30 :
Play Length: 00:09:50
Video: PAL 4:3 (352x576) VBR
Audio:
Russian (Dolby AC3, 2 ch)
General
Complete name : M:\tekushie\Любимые сказки\Любимые сказки 7 2х DVD-5\Диск 1\VIDEO_TS\VTS_01_1.VOB
Format : MPEG-PS
File size : 238 MiB
Duration : 607ms
Overall bit rate mode : Variable
Overall bit rate : 3 293 Mbps

Video
ID : 224 (0xE0)
Format : MPEG Video
Format version : Version 2
Format profile : Main@Main
Format settings, BVOP : Yes
Format settings, Matrix : Custom
Duration : 607ms
Bit rate mode : Variable
Maximum bit rate : 9 348 Kbps
Width : 352 pixels
Height : 576 pixels
Display aspect ratio : 4:3
Frame rate : 25.000 fps
Standard : PAL
Color space : YUV
Chroma subsampling : 4:2:0
Bit depth : 8 bits
Scan type : Interlaced
Scan order : Top Field First
Compression mode : Lossy

Audio
ID : 189 (0xBD)-128 (0x80)
Format : AC-3
Format/Info : Audio Coding 3
Mode extension : CM (complete main)
Format settings, Endianness : Big
Muxing mode : DVD-Video
Duration : 607ms
Bit rate mode : Constant
Bit rate : 448 Kbps
Channel(s) : 6 channels
Channel positions : Front: L C R, Side: L R, LFE
Sampling rate : 48.0 KHz
Bit depth : 16 bits
Compression mode : Lossy
Stream size : 33.2 KiB (0%)

Menu
Бонусы: нет
Скриншоты:
Название: Любимые сказки. Сборник мультфильмов
Год выпуска: 1945-2000
Жанр: Мультфильм, кукольный, рисованный, детский
Выпущено: СССР, Россия, Союзмультфильм
Режиссер: Лев Атаманов, Михаил Цехановский, Ольга Ходатаева, Альберт Иванов, Александр Иванов (II), Александра Снежко-Блоцкая, Зинаида Брумберг, Валентина Брумберг, Дмитрий Бабиченко, Пётр Носов, Евгений Райковский, Леонид Амальрик
В ролях: Мария Бабанова, Георгий Милляр, Нина Никитина, Галина Новожилова, Вера Бендина, Александра Денисова, Михаил Яншин, Борис Андреев, Григорий Шпигель, Ирина Гошева, Юрий Хржановский, Юлия Юльская, Георгий Милляр, Ростислав Плятт, Георгий Вицин

Описание: Сборник содержит прекрасные отечественные мультфильмы, на которых выросло не одно поколение хороших людей...

Качество: DVD
Видео: PAL 4:3 (720x576) VBR
Аудио: Русский (Dolby AC3, 2 ch)
Продолжительность: ~ 10:25:12
Язык: Русский
Диск 1
01. Русь изначальная
02. Добрыня Никитич
03. Василиса Микулишна
04. Межа
05. Молодильные яблоки
06. Фока - на все руки дока
07. Горный мастер
08. Лебеди Непрядвы
09. Волшебная птица
10. В некотором царстве…
11. Волшебное кольцо
12. Как грибы с горохом воевали
13. Храбрец - удалец
14. Поди туда- не знаю куда…
15. Снегурка
16. Мальчик с пальчик
17. Рикки Тикки Тави

Диск 2
01. Гирлянда из малышей
02. Обезьянки и грабители
03. Как обезьянки обедали
04. Дядюшка Ау
05. Ошибка дядюшки Ау
06. Дядюшка Ау в городе
07. Рикэ - хохолок
08. Шелковая кисточка
09. Большая полицейская сказка
10. Волшебная серна
11. Лямзи-Тыри-Бонди, злой волшебник
12. Три дровосека
13. Хочу быть отважным
14. Жили-были дед и баба
15. Заветная мечта
16. Дереза
17. Три зятя
18. День рождения бабушки
19. Верните Рекса
20. Про щенка
21. Как щенок учился плавать
22. Щенок и старая тапочка
23. Пес в сапогах
24. Разрешите погулять с вашей собакой
25. Кубик и Тобик
26. Большой Ух
27. Вовка тренер
28. Дореми
29. Мама для мамонтенка
30. Тайна игрушек
Title: Диск 1
Size: 4.36 Gb ( 4 572 322,00 KBytes ) - DVD-5
Enabled regions: 1, 2, 3, 4, 5, 6, 7, 8

VTS_01 :
Play Length: 00:08:38
Video: PAL 4:3 (352x576) VBR
Audio:
Russian (Dolby AC3, 2 ch)

VTS_02 :
Play Length: 00:08:14
Video: PAL 4:3 (352x576) VBR
Audio:
Russian (Dolby AC3, 2 ch)

VTS_03 :
Play Length: 00:09:06
Video: PAL 4:3 (352x576) VBR
Audio:
Russian (Dolby AC3, 2 ch)

VTS_04 :
Play Length: 00:19:02
Video: PAL 4:3 (352x576) VBR
Audio:
Russian (Dolby AC3, 2 ch)

VTS_05 :
Play Length: 00:18:13
Video: PAL 4:3 (352x576) VBR
Audio:
Russian (Dolby AC3, 2 ch)

VTS_06 :
Play Length: 00:18:29
Video: PAL 4:3 (352x576) VBR
Audio:
Russian (Dolby AC3, 2 ch)

VTS_07 :
Play Length: 00:16:53
Video: PAL 4:3 (352x576) VBR
Audio:
Russian (Dolby AC3, 6 ch)

VTS_08 :
Play Length: 00:26:56
Video: PAL 4:3 (352x576) VBR
Audio:
Russian (Dolby AC3, 6 ch)

VTS_09 :
Play Length: 00:16:46
Video: PAL 4:3 (352x576) VBR
Audio:
Russian (Dolby AC3, 6 ch)

VTS_10 :
Play Length: 00:16:34
Video: PAL 4:3 (352x576) VBR
Audio:
Russian (Dolby AC3, 6 ch)

VTS_11 :
Play Length: 00:09:43
Video: PAL 4:3 (352x576) VBR
Audio:
Russian (Dolby AC3, 6 ch)

VTS_12 :
Play Length: 00:10:05
Video: PAL 4:3 (352x576) VBR
Audio:
Russian (Dolby AC3, 2 ch)

VTS_13 :
Play Length: 00:15:49
Video: PAL 4:3 (352x576) VBR
Audio:
Russian (Dolby AC3, 2 ch)

VTS_14 :
Play Length: 00:08:52
Video: PAL 4:3 (352x576) VBR
Audio:
Russian (Dolby AC3, 2 ch)

VTS_15 :
Play Length: 00:09:42
Video: PAL 4:3 (352x576) VBR
Audio:
Russian (Dolby AC3, 2 ch)

VTS_16 :
Play Length: 00:09:42
Video: PAL 4:3 (352x576) VBR
Audio:
Russian (Dolby AC3, 2 ch)

VTS_17 :
Play Length: 00:15:36
Video: PAL 4:3 (352x576) VBR
Audio:
Russian (Dolby AC3, 2 ch)

VTS_18 :
Play Length: 00:09:38
Video: PAL 4:3 (352x576) VBR
Audio:
Russian (Dolby AC3, 2 ch)

VTS_19 :
Play Length: 00:15:22
Video: PAL 4:3 (352x576) VBR
Audio:
Russian (Dolby AC3, 2 ch)

VTS_20 :
Play Length: 00:09:41
Video: PAL 4:3 (352x576) VBR
Audio:
Russian (Dolby AC3, 2 ch)

VTS_21 :
Play Length: 00:06:58
Video: PAL 4:3 (352x576) VBR
Audio:
Russian (Dolby AC3, 2 ch)

VTS_22 :
Play Length: 00:09:37
Video: PAL 4:3 (352x576) VBR
Audio:
Russian (Dolby AC3, 2 ch)

VTS_23 :
Play Length: 00:19:48
Video: PAL 4:3 (352x576) VBR
Audio:
Russian (Dolby AC3, 2 ch)

VTS_24 :
Play Length: 00:09:32
Video: PAL 4:3 (352x576) VBR
Audio:
Russian (Dolby AC3, 2 ch)

VTS_25 :
Play Length: 00:08:48
Video: PAL 4:3 (352x576) VBR
Audio:
Russian (Dolby AC3, 2 ch)

VTS_26 :
Play Length: 00:09:55
Video: PAL 4:3 (352x576) VBR
Audio:
Russian (Dolby AC3, 2 ch)

VTS_27 :
Play Length: 00:09:54
Video: PAL 4:3 (352x576) VBR
Audio:
Russian (Dolby AC3, 2 ch)

VTS_28 :
Play Length: 00:09:22
Video: PAL 4:3 (352x576) VBR
Audio:
Russian (Dolby AC3, 2 ch)

VTS_29 :
Play Length: 00:07:53
Video: PAL 4:3 (352x576) VBR
Audio:
Russian (Dolby AC3, 2 ch)

VTS_30 :
Play Length: 00:09:29
Video: PAL 4:3 (352x576) VBR
Audio:
Russian (Dolby AC3, 2 ch)
General
Complete name : M:\tekushie\Любимые сказки\Любимые сказки 8 2х DVD-5\Диск 1\VIDEO_TS\VTS_01_1.VOB
Format : MPEG-PS
File size : 103 MiB
Duration : 663ms
Overall bit rate mode : Variable
Overall bit rate : 1 302 Mbps

Video
ID : 224 (0xE0)
Format : MPEG Video
Format version : Version 2
Format profile : Main@Main
Format settings, BVOP : Yes
Format settings, Matrix : Custom
Duration : 663ms
Bit rate mode : Variable
Maximum bit rate : 9 600 Kbps
Width : 352 pixels
Height : 576 pixels
Display aspect ratio : 4:3
Frame rate : 25.000 fps
Standard : PAL
Color space : YUV
Chroma subsampling : 4:2:0
Bit depth : 8 bits
Scan type : Interlaced
Scan order : Top Field First
Compression mode : Lossy

Audio
ID : 189 (0xBD)-128 (0x80)
Format : AC-3
Format/Info : Audio Coding 3
Mode extension : CM (complete main)
Format settings, Endianness : Big
Muxing mode : DVD-Video
Duration : 63ms
Bit rate mode : Constant
Bit rate : 192 Kbps
Channel(s) : 2 channels
Channel positions : Front: L R
Sampling rate : 48.0 KHz
Bit depth : 16 bits
Compression mode : Lossy
Stream size : 1.48 KiB (0%)

Menu
Бонусы: нет
Скриншоты:
Название: Любимые сказки. Сборник мультфильмов
Год выпуска: 1945-2000
Жанр: Мультфильм, кукольный, рисованный, детский
Выпущено: СССР, Россия, Союзмультфильм
Режиссер: Лев Атаманов, Михаил Цехановский, Ольга Ходатаева, Альберт Иванов, Александр Иванов (II), Александра Снежко-Блоцкая, Зинаида Брумберг, Валентина Брумберг, Дмитрий Бабиченко, Пётр Носов, Евгений Райковский, Леонид Амальрик
В ролях: Мария Бабанова, Георгий Милляр, Нина Никитина, Галина Новожилова, Вера Бендина, Александра Денисова, Михаил Яншин, Борис Андреев, Григорий Шпигель, Ирина Гошева, Юрий Хржановский, Юлия Юльская, Георгий Милляр, Ростислав Плятт, Георгий Вицин

Описание: Сборник содержит прекрасные отечественные мультфильмы, на которых выросло не одно поколение хороших людей...

Качество: DVD
Видео: PAL 4:3 (720x576) VBR
Аудио: Русский (Dolby AC3, 2 ch)
Продолжительность: ~ 10:25:12
Язык: Русский
Диск 1
01. Вовка в тридевятом царстве
02. Проделкин в школе
03. На задней парте. Выпуск 1
04. На задней парте. Выпуск 2
05. На задней парте. Выпуск 3
06. На задней парте. Выпуск 4
07. Беги, ручеек
08. Шутки
09. Лиса Патрикеевна
10. Дудочка и кувшинчик
11. Храбрый заяц
12. Яблоко
13. Палочка-выручалочка
14. Живая игрушка
15. Капитошка
16. Возвращайся, Капитошка
17. Золотой ципленок
18. Дождик, дождик, пуще!
19. Как ежик и медвежонок встречали Новый год
20. Непоседа, Мякиш и Нетак
21. История с единицей
22. Путаница
23. Катигоршек
24. Хитрая ворона
25. Старая игрушка
26. Огуречная лошадка
27. Лягушонок ищет папу
28. Пряник
29. Разные колеса
30. Жил у бабушки козел
31. Как несли стол
32. Кит и кот
33. Сказка про лунный свет
34. История о девочке, которая наступила на хлеб
35. Медвежонок и тот, кто живет в речке
36. Злостный разбиватель яиц
37. Отцовская наука

Диск 2
01. Впервые на арене
02. Петух и краски
03. Хвосты
04. Сладкая сказка
05. Терем-теремок
06. Козел да баран
07. Петер - веселый обманщик
08. Охотник до сказок
09. Заяц, который любил давать советы
10. Кот, который умел петь
11. Ежик должен быть колючим?
12. Лошарик
13. Пони бегает по кругу
14. Палочка-выручалочка
15. Кот в сапогах
16. Похитители красок
17. Медвежуть
18. Как Ниночка царицей стала
19. Рассказы старого моряка
20. Шесть Иванов - шесть капитанов
21. Коля, Оля и Ахимед
22. Сокровища затонувших кораблей
23. Лабиринт: Подвиги Тисея
24. Герон
25. Два клена
26. Николай угодник и охотники
27. Это совсем не про это
Title: Диск 1
Size: 4.34 Gb ( 4 546 092,00 KBytes ) - DVD-5
Enabled regions: 1, 2, 3, 4, 5, 6, 7, 8

VTS_01 :
Play Length: 00:19:12
Video: PAL 4:3 (352x576) VBR
Audio:
Russian (Dolby AC3, 2 ch)

VTS_02 :
Play Length: 00:09:47
Video: PAL 4:3 (352x576) VBR
Audio:
Russian (Dolby AC3, 2 ch)

VTS_03 :
Play Length: 00:09:05
Video: PAL 4:3 (352x576) VBR
Audio:
Russian (Dolby AC3, 2 ch)

VTS_04 :
Play Length: 00:09:38
Video: PAL 4:3 (352x576) VBR
Audio:
Russian (Dolby AC3, 2 ch)

VTS_05 :
Play Length: 00:09:08
Video: PAL 4:3 (352x576) VBR
Audio:
Romanian (Dolby AC3, 2 ch)

VTS_06 :
Play Length: 00:10:01
Video: PAL 4:3 (352x576) VBR
Audio:
Russian (Dolby AC3, 2 ch)

VTS_07 :
Play Length: 00:19:04
Video: PAL 4:3 (352x576) VBR
Audio:
Russian (Dolby AC3, 2 ch)

VTS_08 :
Play Length: 00:09:31
Video: PAL 4:3 (352x576) VBR
Audio:
Russian (Dolby AC3, 2 ch)

VTS_09 :
Play Length: 00:09:51
Video: PAL 4:3 (352x576) VBR
Audio:
Russian (Dolby AC3, 2 ch)

VTS_10 :
Play Length: 00:10:09
Video: PAL 4:3 (352x576) VBR
Audio:
Russian (Dolby AC3, 2 ch)

VTS_11 :
Play Length: 00:16:34
Video: PAL 4:3 (352x576) VBR
Audio:
Russian (Dolby AC3, 2 ch)

VTS_12 :
Play Length: 00:15:23
Video: PAL 4:3 (352x576) VBR
Audio:
Russian (Dolby AC3, 2 ch)

VTS_13 :
Play Length: 00:09:29
Video: PAL 4:3 (352x576) VBR
Audio:
Russian (Dolby AC3, 2 ch)

VTS_14 :
Play Length: 00:08:34
Video: PAL 4:3 (352x576) VBR
Audio:
Russian (Dolby AC3, 2 ch)

VTS_15 :
Play Length: 00:09:52
Video: PAL 4:3 (352x576) VBR
Audio:
Russian (Dolby AC3, 2 ch)

VTS_16 :
Play Length: 00:09:49
Video: PAL 4:3 (352x576) VBR
Audio:
Russian (Dolby AC3, 2 ch)

VTS_17 :
Play Length: 00:08:47
Video: PAL 4:3 (352x576) VBR
Audio:
Russian (Dolby AC3, 2 ch)

VTS_18 :
Play Length: 00:07:38
Video: PAL 4:3 (352x576) VBR
Audio:
Russian (Dolby AC3, 2 ch)

VTS_19 :
Play Length: 00:10:17
Video: PAL 4:3 (352x576) VBR
Audio:
Russian (Dolby AC3, 2 ch)

VTS_20 :
Play Length: 00:08:54
Video: PAL 4:3 (352x576) VBR
Audio:
Russian (Dolby AC3, 2 ch)

VTS_21 :
Play Length: 00:09:26
Video: PAL 4:3 (352x576) VBR
Audio:
Russian (Dolby AC3, 2 ch)

VTS_22 :
Play Length: 00:09:37
Video: PAL 4:3 (352x576) VBR
Audio:
Russian (Dolby AC3, 2 ch)

VTS_23 :
Play Length: 00:08:34
Video: PAL 4:3 (352x576) VBR
Audio:
Russian (Dolby AC3, 2 ch)

VTS_24 :
Play Length: 00:09:40
Video: PAL 4:3 (352x576) VBR
Audio:
Russian (Dolby AC3, 2 ch)

VTS_25 :
Play Length: 00:08:24
Video: PAL 4:3 (352x576) VBR
Audio:
Russian (Dolby AC3, 2 ch)

VTS_26 :
Play Length: 00:08:55
Video: PAL 4:3 (352x576) VBR
Audio:
Russian (Dolby AC3, 2 ch)

VTS_27 :
Play Length: 00:09:42
Video: PAL 4:3 (352x576) VBR
Audio:
Russian (Dolby AC3, 2 ch)

VTS_28 :
Play Length: 00:10:00
Video: PAL 4:3 (352x576) VBR
Audio:
Russian (Dolby AC3, 2 ch)

VTS_29 :
Play Length: 00:09:06
Video: PAL 4:3 (352x576) VBR
Audio:
Russian (Dolby AC3, 2 ch)

VTS_30 :
Play Length: 00:07:59
Video: PAL 4:3 (352x576) VBR
Audio:
Russian (Dolby AC3, 2 ch)

VTS_31 :
Play Length: 00:08:58
Video: PAL 4:3 (352x576) VBR
Audio:
Russian (Dolby AC3, 2 ch)

VTS_32 :
Play Length: 00:09:09
Video: PAL 4:3 (352x576) VBR
Audio:
Russian (Dolby AC3, 2 ch)

VTS_33 :
Play Length: 00:10:01
Video: PAL 4:3 (352x576) VBR
Audio:
Russian (Dolby AC3, 2 ch)

VTS_34 :
Play Length: 00:09:47
Video: PAL 4:3 (352x576) VBR
Audio:
Russian (Dolby AC3, 2 ch)

VTS_35 :
Play Length: 00:09:28
Video: PAL 4:3 (352x576) VBR
Audio:
Russian (Dolby AC3, 2 ch)

VTS_36 :
Play Length: 00:09:40
Video: PAL 4:3 (352x576) VBR
Audio:
Russian (Dolby AC3, 2 ch)
General
Complete name : M:\tekushie\Любимые сказки\Любимые сказки 9 2хDVD-5\Диск 1\VIDEO_TS\VTS_01_1.VOB
Format : MPEG-PS
File size : 328 MiB
Duration : 599ms
Overall bit rate mode : Variable
Overall bit rate : 0 bps

Video
ID : 224 (0xE0)
Format : MPEG Video
Format version : Version 2
Format profile : Main@Main
Format settings, BVOP : Yes
Format settings, Matrix : Custom
Duration : 599ms
Bit rate mode : Variable
Maximum bit rate : 9 568 Kbps
Width : 352 pixels
Height : 576 pixels
Display aspect ratio : 4:3
Frame rate : 25.000 fps
Standard : PAL
Color space : YUV
Chroma subsampling : 4:2:0
Bit depth : 8 bits
Scan type : Interlaced
Scan order : Top Field First
Compression mode : Lossy

Audio #1
ID : 189 (0xBD)-128 (0x80)
Format : AC-3
Format/Info : Audio Coding 3
Mode extension : CM (complete main)
Format settings, Endianness : Big
Muxing mode : DVD-Video
Duration : 599ms
Bit rate mode : Constant
Bit rate : 224 Kbps
Channel(s) : 2 channels
Channel positions : Front: L R
Sampling rate : 48.0 KHz
Bit depth : 16 bits
Compression mode : Lossy
Stream size : 16.4 KiB (0%)

Audio #2
ID : 219 (0xDB)
Format : MPEG Audio
Compression mode : Lossy

Menu
Бонусы: нет
Скриншоты:
Название: Любимые сказки. Сборник мультфильмов
Год выпуска: 1945-2000
Жанр: Мультфильм, кукольный, рисованный, детский
Выпущено: СССР, Россия, Союзмультфильм
Режиссер: Лев Атаманов, Михаил Цехановский, Ольга Ходатаева, Альберт Иванов, Александр Иванов (II), Александра Снежко-Блоцкая, Зинаида Брумберг, Валентина Брумберг, Дмитрий Бабиченко, Пётр Носов, Евгений Райковский, Леонид Амальрик
В ролях: Мария Бабанова, Георгий Милляр, Нина Никитина, Галина Новожилова, Вера Бендина, Александра Денисова, Михаил Яншин, Борис Андреев, Григорий Шпигель, Ирина Гошева, Юрий Хржановский, Юлия Юльская, Георгий Милляр, Ростислав Плятт, Георгий Вицин

Описание: Сборник содержит прекрасные отечественные мультфильмы, на которых выросло не одно поколение хороших людей...

Качество: DVD
Видео: PAL 4:3 (720x576) VBR
Аудио: Русский (Dolby AC3, 2 ch)
Продолжительность: ~ 10:25:12
Язык: Русский
Диск 1
01. Алеша Попович и Тугарин змей
02. Карлик Нос
03. Двенадцать месяцев
04. В яранге горит огонь
05. Чиполлино
06. Заколдованный мальчик
07. Храбрый Пак
08. Ух ты, говорящая рыба!
09. В синем море, в белой пене…
10. Ишь ты, масленица!
11. Как старик корову продавал
12. Жадный богач
13. Лиса и заяц
14. Ежик в тумане

Диск 2
01. Волшебная кисточка
02. Понда и Понди
03. Персефона
04. Дерево с золотыми яблоками
05. Пастух Тимур
06. Корона и скипетр
07. Тростниковая шапочка
08. Тимун и нарвал
09. Черепаха, заслужившая уважение
10. Генерал Топтыгин
11. Машенька
12. Медведь - липовая нога
13. Вершки и корешки
14. Два жадных медвежонка
15. Айболит и Бармалей
16. Бибигон
17. Чудо-дерево
18. Телефон
19. Раз ковбой, два ковбой…
20. Чертенок №13
21. У страха глаза велики
22. В зоопарке ремонт
23. Бим, Бам, Бом и волк
24. Кошкин дом
25. Волк и семеро козлят на новый лад
26. Здравствуйте, тетя Лиса!
27. Кто ж такие птички?
28. Цапля и журавль
29. Сказка сказок
30. Укрощение велосипеда
Title: Диск 1
Size: 4.35 Gb ( 4 563 956,00 KBytes ) - DVD-5
Enabled regions: 1, 2, 3, 4, 5, 6, 7, 8

VTS_01 :
Play Length: 01:15:32
Video: PAL 4:3 (352x576) VBR
Audio:
Russian (Dolby AC3, 6 ch)

VTS_02 :
Play Length: 01:18:56
Video: PAL 4:3 (352x576) VBR
Audio:
Russian (Dolby AC3, 6 ch)

VTS_03 :
Play Length: 00:52:45
Video: PAL 4:3 (352x576) VBR
Audio:
Russian (Dolby AC3, 6 ch)

VTS_04 :
Play Length: 00:20:14
Video: PAL 4:3 (352x576) VBR
Audio:
Russian (Dolby AC3, 6 ch)

VTS_05 :
Play Length: 00:37:42
Video: PAL 4:3 (352x576) VBR
Audio:
Russian (Dolby AC3, 6 ch)

VTS_06 :
Play Length: 00:42:52
Video: PAL 4:3 (352x576) VBR
Audio:
Russian (Dolby AC3, 6 ch)

VTS_07 :
Play Length: 00:20:13
Video: PAL 4:3 (352x576) VBR
Audio:
Russian (Dolby AC3, 2 ch)

VTS_08 :
Play Length: 00:07:35
Video: PAL 4:3 (352x576) VBR
Audio:
Russian (Dolby AC3, 2 ch)

VTS_09 :
Play Length: 00:07:50
Video: PAL 4:3 (352x576) VBR
Audio:
Russian (Dolby AC3, 2 ch)

VTS_10 :
Play Length: 00:07:25
Video: PAL 4:3 (352x576) VBR
Audio:
Russian (Dolby AC3, 2 ch)

VTS_11 :
Play Length: 00:05:50
Video: PAL 4:3 (352x576) VBR
Audio:
Russian (Dolby AC3, 2 ch)

VTS_12 :
Play Length: 00:04:25
Video: PAL 4:3 (352x576) VBR
Audio:
Russian (Dolby AC3, 2 ch)

VTS_13 :
Play Length: 00:11:41
Video: PAL 4:3 (352x576) VBR
Audio:
Russian (Dolby AC3, 6 ch)

VTS_14 :
Play Length: 00:09:56
Video: PAL 4:3 (352x576) VBR
Audio:
Russian (Dolby AC3, 6 ch)
General
Complete name : M:\tekushie\Любимые сказки\Любимые сказки 10 2xDVD-5\Диск 1\VIDEO_TS\VTS_01_1.VOB
Format : MPEG-PS
File size : 878 MiB
Duration : 583ms
Overall bit rate mode : Variable
Overall bit rate : 0 bps

Video
ID : 224 (0xE0)
Format : MPEG Video
Format version : Version 2
Format profile : Main@Main
Format settings, BVOP : Yes
Format settings, Matrix : Custom
Duration : 583ms
Bit rate mode : Variable
Maximum bit rate : 9 348 Kbps
Width : 352 pixels
Height : 576 pixels
Display aspect ratio : 4:3
Frame rate : 25.000 fps
Standard : PAL
Color space : YUV
Chroma subsampling : 4:2:0
Bit depth : 8 bits
Scan type : Interlaced
Scan order : Top Field First
Compression mode : Lossy

Audio
ID : 189 (0xBD)-128 (0x80)
Format : AC-3
Format/Info : Audio Coding 3
Mode extension : CM (complete main)
Format settings, Endianness : Big
Muxing mode : DVD-Video
Duration : 583ms
Bit rate mode : Constant
Bit rate : 448 Kbps
Channel(s) : 6 channels
Channel positions : Front: L C R, Side: L R, LFE
Sampling rate : 48.0 KHz
Bit depth : 16 bits
Compression mode : Lossy
Stream size : 31.9 KiB (0%)

Menu
Бонусы: нет
Скриншоты:
Название: Любимые сказки. Сборник мультфильмов
Год выпуска: 1945-2000
Жанр: Мультфильм, кукольный, рисованный, детский
Выпущено: СССР, Россия, Союзмультфильм
Режиссер: Лев Атаманов, Михаил Цехановский, Ольга Ходатаева, Альберт Иванов, Александр Иванов (II), Александра Снежко-Блоцкая, Зинаида Брумберг, Валентина Брумберг, Дмитрий Бабиченко, Пётр Носов, Евгений Райковский, Леонид Амальрик
В ролях: Мария Бабанова, Георгий Милляр, Нина Никитина, Галина Новожилова, Вера Бендина, Александра Денисова, Михаил Яншин, Борис Андреев, Григорий Шпигель, Ирина Гошева, Юрий Хржановский, Юлия Юльская, Георгий Милляр, Ростислав Плятт, Георгий Вицин

Описание: Сборник содержит прекрасные отечественные мультфильмы, на которых выросло не одно поколение хороших людей...

Качество: DVD
Видео: PAL 4:3 (720x576) VBR
Аудио: Русский (Dolby AC3, 2 ch)
Продолжительность: ~ 10:25:12
Язык: Русский
Диск 1
1. По щучьему велению - 30 мин
2. Как Иван-молодец царскую дочку спасал - 8 мин
3. Сестрица Аленушка и Братец Иванушка - 10 мин
4. Царевна-лягушка - 30 мин
5. Цветик-семицветик - 20 мин
6. Волшебный магазин - 30 мин
7. Приключения пингвиненка Лоло 1 - 30 мин
8. Приключения пингвиненка Лоло 2 - 19 мин
9. Приключения пингвиненка Лоло 3 - 29 мин
10. Влюбчивая ворона
11. Зимовье зверей - 10 мин
12. Про мамонтенка - 9 мин
13. Слоненок - 10 мин
14. Слоненок и письмо - 8 мин
15. Слоненок заболел - 10 мин
16. Слоненок пошел учиться - 10 мин
17. Слоненок - турист - 10 мин
18. Ночной цветок - 10 мин
19. Козленок, который считал до 10 - 9 мин
20. Живая игрушка - 9 мин
21. Королева - зубная щетка - 18 мин
22. Шутки - 10 мин
23. Мук-скороход - 17 мин
24. Как котенку построили дом - 10 мин

Диск 2
1. Серый волк энд Красная Шапочка - 26 мин
2. Кот в сапогах - 27 мин
3. Тяп-ляп маляры - 9 мин
4. Банкет - 10 мин
5. Брак - 10 мин
6. Брэк! - 10 мин
7. Очень синяя борода - 20 мин
8. Шалтай-болтай - 16 мин
9. Вот какой рассеяный - 10 мин
10. Нехочуха - 9 мин
11. Краденое солнце - 7 мин
12. Девочка Люся и дедушка Крылов - 13 мин
13. Про мышонка - 13 мин
14. Каштанка - 21 мин
15. Гостинец от крестной - 15 мин
16. Новогоднее приключение двух братьев - 17 мин
17. Желтухин - 13 мин
18. В гостях у лета - 19 мин
19. Короли и капуста - 52 мин
20. Моби Дик - 26 мин
21. Белый домик - 13 мин
22. Музыкальный магазинчик - 12 мин
Title: Диск 1
Size: 4.35 Gb ( 4 563 956,00 KBytes ) - DVD-5
Enabled regions: 1, 2, 3, 4, 5, 6, 7, 8

VTS_01 :
Play Length: 01:15:32
Video: PAL 4:3 (352x576) VBR
Audio:
Russian (Dolby AC3, 6 ch)

VTS_02 :
Play Length: 01:18:56
Video: PAL 4:3 (352x576) VBR
Audio:
Russian (Dolby AC3, 6 ch)

VTS_03 :
Play Length: 00:52:45
Video: PAL 4:3 (352x576) VBR
Audio:
Russian (Dolby AC3, 6 ch)

VTS_04 :
Play Length: 00:20:14
Video: PAL 4:3 (352x576) VBR
Audio:
Russian (Dolby AC3, 6 ch)

VTS_05 :
Play Length: 00:37:42
Video: PAL 4:3 (352x576) VBR
Audio:
Russian (Dolby AC3, 6 ch)

VTS_06 :
Play Length: 00:42:52
Video: PAL 4:3 (352x576) VBR
Audio:
Russian (Dolby AC3, 6 ch)

VTS_07 :
Play Length: 00:20:13
Video: PAL 4:3 (352x576) VBR
Audio:
Russian (Dolby AC3, 2 ch)

VTS_08 :
Play Length: 00:07:35
Video: PAL 4:3 (352x576) VBR
Audio:
Russian (Dolby AC3, 2 ch)

VTS_09 :
Play Length: 00:07:50
Video: PAL 4:3 (352x576) VBR
Audio:
Russian (Dolby AC3, 2 ch)

VTS_10 :
Play Length: 00:07:25
Video: PAL 4:3 (352x576) VBR
Audio:
Russian (Dolby AC3, 2 ch)

VTS_11 :
Play Length: 00:05:50
Video: PAL 4:3 (352x576) VBR
Audio:
Russian (Dolby AC3, 2 ch)

VTS_12 :
Play Length: 00:04:25
Video: PAL 4:3 (352x576) VBR
Audio:
Russian (Dolby AC3, 2 ch)

VTS_13 :
Play Length: 00:11:41
Video: PAL 4:3 (352x576) VBR
Audio:
Russian (Dolby AC3, 6 ch)

VTS_14 :
Play Length: 00:09:56
Video: PAL 4:3 (352x576) VBR
Audio:
Russian (Dolby AC3, 6 ch)
General
Complete name : M:\tekushie\Любимые сказки\Любимые сказки 10 2xDVD-5\Диск 1\VIDEO_TS\VTS_01_1.VOB
Format : MPEG-PS
File size : 878 MiB
Duration : 583ms
Overall bit rate mode : Variable
Overall bit rate : 0 bps

Video
ID : 224 (0xE0)
Format : MPEG Video
Format version : Version 2
Format profile : Main@Main
Format settings, BVOP : Yes
Format settings, Matrix : Custom
Duration : 583ms
Bit rate mode : Variable
Maximum bit rate : 9 348 Kbps
Width : 352 pixels
Height : 576 pixels
Display aspect ratio : 4:3
Frame rate : 25.000 fps
Standard : PAL
Color space : YUV
Chroma subsampling : 4:2:0
Bit depth : 8 bits
Scan type : Interlaced
Scan order : Top Field First
Compression mode : Lossy

Audio
ID : 189 (0xBD)-128 (0x80)
Format : AC-3
Format/Info : Audio Coding 3
Mode extension : CM (complete main)
Format settings, Endianness : Big
Muxing mode : DVD-Video
Duration : 583ms
Bit rate mode : Constant
Bit rate : 448 Kbps
Channel(s) : 6 channels
Channel positions : Front: L C R, Side: L R, LFE
Sampling rate : 48.0 KHz
Bit depth : 16 bits
Compression mode : Lossy
Stream size : 31.9 KiB (0%)

Menu
Бонусы: нет
Скриншоты:
Название: Любимые сказки. Сборник мультфильмов
Год выпуска: 1945-2000
Жанр: Мультфильм, кукольный, рисованный, детский
Выпущено: СССР, Россия, Союзмультфильм
Режиссер: Лев Атаманов, Михаил Цехановский, Ольга Ходатаева, Альберт Иванов, Александр Иванов (II), Александра Снежко-Блоцкая, Зинаида Брумберг, Валентина Брумберг, Дмитрий Бабиченко, Пётр Носов, Евгений Райковский, Леонид Амальрик
В ролях: Мария Бабанова, Георгий Милляр, Нина Никитина, Галина Новожилова, Вера Бендина, Александра Денисова, Михаил Яншин, Борис Андреев, Григорий Шпигель, Ирина Гошева, Юрий Хржановский, Юлия Юльская, Георгий Милляр, Ростислав Плятт, Георгий Вицин

Описание: Сборник содержит прекрасные отечественные мультфильмы, на которых выросло не одно поколение хороших людей...

Качество: DVD
Видео: PAL 4:3 (720x576) VBR
Аудио: Русский (Dolby AC3, 2 ch)
Продолжительность: ~ 10:25:12
Язык: Русский
Диск 1
01. Фильм, фильм, фильм
02. Капитан Пронин - внук майора Пронина
03. Капитан Пронин в Америке
04. Капитан Пронин в космосе
05. Капитан Пронин в опере
06. Шпионские страсти
07. Ограбление по…
08. Чуча
09. Чуча 2
10. Чуча 3
11. Летучий корабль
12. Степа - моряк
13. Трое на острове
14. Мореплавание Солнышкина
15. Приключения красных галстуков
16. Два билета в Индию
17. Письмо
18. Соперники
19. Последний лепесток
20. Потерялась внучка
21. Колыбельная
22. Короткие истории

Диск 2
01. Крылатый мастер
02. Как казак счастье искал
03. Как жены мужей продавали
04. Как мужья жен проучили
05. Зелена пилюля
06. Жук, корабль, абрикос
07. Эскимо
08. Лисичка со скалкой
09. Великая битва слона с китом
10. Прежде мы были птицами
11. Легенда о пламенном сердце
12. Выкрутасы
13. Котфликт
14. Адажио
15. Джон Хенри - стальной молоток
16. Царь Соломон и пчела
17. Пастушка и трубочист
18. Два брата
19. Три сестры, упавшие в гору
20. Эвен Конгар
21. Зеленый человечек
22. Цветок папортника
23. Тиран и ребенок
24. Красный холм
25. Заколдованный лев
26. Непослушная крошка Эмми
27. Кололь Март
28. Тетушка тигр
29. Правитель и плотник
30. Фионн
31. Ворон крадет дневной свет
Title: Диск 1
Size: 4.35 Gb ( 4 562 616,00 KBytes ) - DVD-5
Enabled regions: 1, 2, 3, 4, 5, 6, 7, 8

VTS_01 :
Play Length: 00:18:32
Video: PAL 4:3 (352x576) VBR
Audio:
Russian (Dolby AC3, 2 ch)

VTS_02 :
Play Length: 00:09:43
Video: PAL 4:3 (352x576) VBR
Audio:
Russian (Dolby AC3, 2 ch)

VTS_03 :
Play Length: 00:06:28
Video: PAL 4:3 (352x576) VBR
Audio:
Russian (Dolby AC3, 2 ch)

VTS_04 :
Play Length: 00:07:07
Video: PAL 4:3 (352x576) VBR
Audio:
Russian (Dolby AC3, 2 ch)

VTS_05 :
Play Length: 00:07:56
Video: PAL 4:3 (352x576) VBR
Audio:
Russian (Dolby AC3, 2 ch)

VTS_06 :
Play Length: 00:19:54
Video: PAL 4:3 (352x576) VBR
Audio:
Russian (Dolby AC3, 2 ch)

VTS_07 :
Play Length: 00:20:00
Video: PAL 4:3 (352x576) VBR
Audio:
Russian (Dolby AC3, 2 ch)

VTS_08 :
Play Length: 00:24:23
Video: PAL 4:3 (352x576) VBR
Audio:
Russian (Dolby AC3, 2 ch)

VTS_09 :
Play Length: 00:26:00
Video: PAL 4:3 (352x576) VBR
Audio:
Russian (Dolby AC3, 2 ch)

VTS_10 :
Play Length: 00:28:29
Video: PAL 4:3 (352x576) VBR
Audio:
Russian (Dolby AC3, 2 ch)

VTS_11 :
Play Length: 00:17:46
Video: PAL 4:3 (352x576) VBR
Audio:
Russian (Dolby AC3, 2 ch)

VTS_12 :
Play Length: 00:25:46
Video: PAL 4:3 (352x576) VBR
Audio:
Russian (Dolby AC3, 2 ch)

VTS_13 :
Play Length: 00:17:15
Video: PAL 4:3 (352x576) VBR
Audio:
Russian (Dolby AC3, 2 ch)

VTS_14 :
Play Length: 00:16:36
Video: PAL 4:3 (352x576) VBR
Audio:
Russian (Dolby AC3, 2 ch)

VTS_15 :
Play Length: 00:17:34
Video: PAL 4:3 (352x576) VBR
Audio:
Russian (Dolby AC3, 2 ch)

VTS_16 :
Play Length: 00:18:58
Video: PAL 4:3 (352x576) VBR
Audio:
Russian (Dolby AC3, 2 ch)

VTS_17 :
Play Length: 00:09:07
Video: PAL 4:3 (352x576) VBR
Audio:
Russian (Dolby AC3, 2 ch)

VTS_18 :
Play Length: 00:15:11
Video: PAL 4:3 (352x576) VBR
Audio:
Russian (Dolby AC3, 2 ch)

VTS_19 :
Play Length: 00:24:55
Video: PAL 4:3 (352x576) VBR
Audio:
Russian (Dolby AC3, 2 ch)

VTS_20 :
Play Length: 00:19:40
Video: PAL 4:3 (352x576) VBR
Audio:
Russian (Dolby AC3, 2 ch)

VTS_21 :
Play Length: 00:09:45
Video: PAL 4:3 (352x576) VBR
Audio:
Russian (Dolby AC3, 2 ch)

VTS_22 :
Play Length: 00:08:51
Video: PAL 4:3 (352x576) VBR
Audio:
Russian (Dolby AC3, 2 ch)
General
Complete name : M:\tekushie\Любимые сказки\Любимые сказки 11 2xDVD-5\Диск 1\VIDEO_TS\VTS_01_1.VOB
Format : MPEG-PS
File size : 365 MiB
Duration : 679ms
Overall bit rate mode : Variable
Overall bit rate : 0 bps

Video
ID : 224 (0xE0)
Format : MPEG Video
Format version : Version 2
Format profile : Main@Main
Format settings, BVOP : Yes
Format settings, Matrix : Custom
Duration : 679ms
Bit rate mode : Variable
Maximum bit rate : 9 600 Kbps
Width : 352 pixels
Height : 576 pixels
Display aspect ratio : 4:3
Frame rate : 25.000 fps
Standard : PAL
Color space : YUV
Chroma subsampling : 4:2:0
Bit depth : 8 bits
Scan type : Interlaced
Scan order : Bottom Field First
Compression mode : Lossy

Audio
ID : 189 (0xBD)-128 (0x80)
Format : AC-3
Format/Info : Audio Coding 3
Mode extension : CM (complete main)
Format settings, Endianness : Big
Muxing mode : DVD-Video
Duration : 63ms
Bit rate mode : Constant
Bit rate : 192 Kbps
Channel(s) : 2 channels
Channel positions : Front: L R
Sampling rate : 48.0 KHz
Bit depth : 16 bits
Compression mode : Lossy
Stream size : 1.48 KiB (0%)

Menu
Бонусы: нет
Скриншоты:
Название: Любимые сказки. Сборник мультфильмов
Год выпуска: 1945-2000
Жанр: Мультфильм, кукольный, рисованный, детский
Выпущено: СССР, Россия, Союзмультфильм
Режиссер: Лев Атаманов, Михаил Цехановский, Ольга Ходатаева, Альберт Иванов, Александр Иванов (II), Александра Снежко-Блоцкая, Зинаида Брумберг, Валентина Брумберг, Дмитрий Бабиченко, Пётр Носов, Евгений Райковский, Леонид Амальрик
В ролях: Мария Бабанова, Георгий Милляр, Нина Никитина, Галина Новожилова, Вера Бендина, Александра Денисова, Михаил Яншин, Борис Андреев, Григорий Шпигель, Ирина Гошева, Юрий Хржановский, Юлия Юльская, Георгий Милляр, Ростислав Плятт, Георгий Вицин

Описание: Сборник содержит прекрасные отечественные мультфильмы, на которых выросло не одно поколение хороших людей...

Качество: DVD
Видео: PAL 4:3 (720x576) VBR
Аудио: Русский (Dolby AC3, 2 ch)
Продолжительность: ~ 10:25:12
Язык: Русский
Диск 1
01. Стойкий оловянный солдатик
02. Дюймовочка
03. Как один мужик двух генералов прокормил
04. Шкатулка с секретом
05. Серебряное копытце
06.Златовласка
07. Новичок
08. Чудеса техники
09. Машинка времени
10. Исчезатель
11. Наша няня
12. Вагончик
13. Поползновение
14. Прямое попадание
15. Латекс
16. Полночные игры
17. Я иду искать
18. Унесенные ветром
19. Интродукция
20. Исторические анекдоты
21. Гипнэротомахия
22. Соседи
23. Его жена курица
24. Красные ворота Расемон
25. Иван Хуан
26. Золотые ворота
27. Веселая карусель №9
28. Веселая карусель №19
29. Веселая карусель №20
30. Веселая карусель №21
31. Веселая карусель №22
32. Веселая карусель №23
33. Веселая карусель №24
34. Веселая карусель №25
35. Веселая карусель №26

Диск 2
01. Трям! Здравствуйте!
02. Зимняя сказка
03. Осенние корабли
04. Удивительная бочка
05. Новоселье у Братца Кролика
06. Дом для леопарда
07. Сказка про храброго зайца
08. Топчумба
09. Мечта маленького ослика
10. Ослик
11. Реактивный поросенок
12. Светлячок и росинка
13. Отшельник и роза
14. Динозаврик
15. Листопадничек
16. Ерш и воробей
17. Квака-задавака
18. Буренушка
19. Самый большой друг
20. Про бегемота, который боялся прививок
21. Подарок для самого слабого
22. Кто самый сильный
23. Чудеса в решете
24. Так сойдет!
25. Сказка про лень
26. Недодел и передел
27. Песенка мышонка
28. Кем быть?
29. Друзья - товарищи
30. Маша больше не лентяйка
31. Золотой мальчик
32. Богатырская каша
33. Приключения Васи Куролесоваа
Title: Диск 1
Size: 4.35 Gb ( 4 563 956,00 KBytes ) - DVD-5
Enabled regions: 1, 2, 3, 4, 5, 6, 7, 8

VTS_01 :
Play Length: 01:15:32
Video: PAL 4:3 (352x576) VBR
Audio:
Russian (Dolby AC3, 6 ch)

VTS_02 :
Play Length: 01:18:56
Video: PAL 4:3 (352x576) VBR
Audio:
Russian (Dolby AC3, 6 ch)

VTS_03 :
Play Length: 00:52:45
Video: PAL 4:3 (352x576) VBR
Audio:
Russian (Dolby AC3, 6 ch)

VTS_04 :
Play Length: 00:20:14
Video: PAL 4:3 (352x576) VBR
Audio:
Russian (Dolby AC3, 6 ch)

VTS_05 :
Play Length: 00:37:42
Video: PAL 4:3 (352x576) VBR
Audio:
Russian (Dolby AC3, 6 ch)

VTS_06 :
Play Length: 00:42:52
Video: PAL 4:3 (352x576) VBR
Audio:
Russian (Dolby AC3, 6 ch)

VTS_07 :
Play Length: 00:20:13
Video: PAL 4:3 (352x576) VBR
Audio:
Russian (Dolby AC3, 2 ch)

VTS_08 :
Play Length: 00:07:35
Video: PAL 4:3 (352x576) VBR
Audio:
Russian (Dolby AC3, 2 ch)

VTS_09 :
Play Length: 00:07:50
Video: PAL 4:3 (352x576) VBR
Audio:
Russian (Dolby AC3, 2 ch)

VTS_10 :
Play Length: 00:07:25
Video: PAL 4:3 (352x576) VBR
Audio:
Russian (Dolby AC3, 2 ch)

VTS_11 :
Play Length: 00:05:50
Video: PAL 4:3 (352x576) VBR
Audio:
Russian (Dolby AC3, 2 ch)

VTS_12 :
Play Length: 00:04:25
Video: PAL 4:3 (352x576) VBR
Audio:
Russian (Dolby AC3, 2 ch)

VTS_13 :
Play Length: 00:11:41
Video: PAL 4:3 (352x576) VBR
Audio:
Russian (Dolby AC3, 6 ch)

VTS_14 :
Play Length: 00:09:56
Video: PAL 4:3 (352x576) VBR
Audio:
Russian (Dolby AC3, 6 ch)
General
Complete name : M:\tekushie\Любимые сказки\Любимые сказки 10 2xDVD-5\Диск 1\VIDEO_TS\VTS_01_1.VOB
Format : MPEG-PS
File size : 878 MiB
Duration : 583ms
Overall bit rate mode : Variable
Overall bit rate : 0 bps

Video
ID : 224 (0xE0)
Format : MPEG Video
Format version : Version 2
Format profile : Main@Main
Format settings, BVOP : Yes
Format settings, Matrix : Custom
Duration : 583ms
Bit rate mode : Variable
Maximum bit rate : 9 348 Kbps
Width : 352 pixels
Height : 576 pixels
Display aspect ratio : 4:3
Frame rate : 25.000 fps
Standard : PAL
Color space : YUV
Chroma subsampling : 4:2:0
Bit depth : 8 bits
Scan type : Interlaced
Scan order : Top Field First
Compression mode : Lossy

Audio
ID : 189 (0xBD)-128 (0x80)
Format : AC-3
Format/Info : Audio Coding 3
Mode extension : CM (complete main)
Format settings, Endianness : Big
Muxing mode : DVD-Video
Duration : 583ms
Bit rate mode : Constant
Bit rate : 448 Kbps
Channel(s) : 6 channels
Channel positions : Front: L C R, Side: L R, LFE
Sampling rate : 48.0 KHz
Bit depth : 16 bits
Compression mode : Lossy
Stream size : 31.9 KiB (0%)

Menu
Бонусы: нет
Скриншоты:
Название: Любимые сказки. Сборник мультфильмов
Год выпуска: 1945-2000
Жанр: Мультфильм, кукольный, рисованный, детский
Выпущено: СССР, Россия, Союзмультфильм
Режиссер: Лев Атаманов, Михаил Цехановский, Ольга Ходатаева, Альберт Иванов, Александр Иванов (II), Александра Снежко-Блоцкая, Зинаида Брумберг, Валентина Брумберг, Дмитрий Бабиченко, Пётр Носов, Евгений Райковский, Леонид Амальрик
В ролях: Мария Бабанова, Георгий Милляр, Нина Никитина, Галина Новожилова, Вера Бендина, Александра Денисова, Михаил Яншин, Борис Андреев, Григорий Шпигель, Ирина Гошева, Юрий Хржановский, Юлия Юльская, Георгий Милляр, Ростислав Плятт, Георгий Вицин

Описание: Сборник содержит прекрасные отечественные мультфильмы, на которых выросло не одно поколение хороших людей...

Качество: DVD
Видео: PAL 4:3 (720x576) VBR
Аудио: Русский (Dolby AC3, 2 ch)
Продолжительность: ~ 10:25:12
Язык: Русский
Диск 1
01. Крокодил Гена
02. Чебурашка
03. Шапокляк
04. Чебурашка идет в школу
05. Медной горы хозяйка
06. Каменный цветок
07. Малахитовая шкатулка
08. Подаренка
09. Травяная западенка
10. Синюшкин колодец
11. Братец Кролик и Братец Лис
12. Волшебные очки
13. Золотая липа
14. Иванко и вороний царь
15. Лесная песнь
16. Морозики - морозы
17. Отчаянный кот Васька
18. Самовар Иван Иваныч
19. Баба Яга против!
20. Солдат и черт
21. По лунной дороге

Дядя Федор, пес и кот
22. Матроскин и Шарик
23. Митя и Мурка
24. Мама и Папа

Диск 2
01. Девочка + дракон
02. Малиновое варенье
03. Забытый день рождения
04. Крококот
05. Снегопад из холодильника
06. Урок музыки
07. Вреднюга

КОАПП
08. Черный заяц
09. Что услышала медуза
10. Разными глазами
11. Сонное царство
12. Когда я был маленьким
13. Самая скорая помощь
14. Банный день
15. Тайна зеленого острова
16. Перепись населения
17. Всюду жизнь
18. Пробег
19. Дом для барсука
20. Ограбление вернисажа
21. AB OVO - это значит ОТ ЯЙЦА
22. Кошмар на Амазонке
23. SOS! КОАППу!
24. Таинственный ка…
25. Симбиоз

26. Змей на чердаке
27. Ничуть не страшно
28. Уважаемый леший
29. Глаша и Кикимора
30. Свирепый Бамбр
31. По следам Бамбра
32. Ловушка для Бамбра
33. Большой подземный бал
34. Бездомные домовые
35. Остров капитанов
Title: Диск 1
Size: 4.34 Gb ( 4 555 134,00 KBytes ) - DVD-5
Enabled regions: 1, 2, 3, 4, 5, 6, 7, 8

VTS_01 :
Play Length: 00:19:27
Video: PAL 4:3 (352x576) VBR
Audio:
Russian (Dolby AC3, 6 ch)

VTS_02 :
Play Length: 00:19:03
Video: PAL 4:3 (352x576) VBR
Audio:
Russian (Dolby AC3, 6 ch)

VTS_03 :
Play Length: 00:18:51
Video: PAL 4:3 (352x576) VBR
Audio:
Russian (Dolby AC3, 6 ch)

VTS_04 :
Play Length: 00:09:22
Video: PAL 4:3 (352x576) VBR
Audio:
Russian (Dolby AC3, 6 ch)

VTS_05 :
Play Length: 00:20:41
Video: PAL 4:3 (352x576) VBR
Audio:
Russian (Dolby AC3, 2 ch)

VTS_06 :
Play Length: 00:26:38
Video: PAL 4:3 (352x576) VBR
Audio:
Russian (Dolby AC3, 2 ch)

VTS_07 :
Play Length: 00:20:13
Video: PAL 4:3 (352x576) VBR
Audio:
Russian (Dolby AC3, 2 ch)

VTS_08 :
Play Length: 00:18:28
Video: PAL 4:3 (352x576) VBR
Audio:
Russian (Dolby AC3, 2 ch)

VTS_09 :
Play Length: 00:15:25
Video: PAL 4:3 (352x576) VBR
Audio:
Russian (Dolby AC3, 2 ch)

VTS_10 :
Play Length: 00:16:58
Video: PAL 4:3 (352x576) VBR
Audio:
Russian (Dolby AC3, 2 ch)

VTS_11 :
Play Length: 00:09:26
Video: PAL 4:3 (352x576) VBR
Audio:
Russian (Dolby AC3, 2 ch)

VTS_12 :
Play Length: 00:09:46
Video: PAL 4:3 (352x576) VBR
Audio:
Russian (Dolby AC3, 2 ch)

VTS_13 :
Play Length: 00:08:04
Video: PAL 4:3 (352x576) VBR
Audio:
Russian (Dolby AC3, 2 ch)

VTS_14 :
Play Length: 00:09:25
Video: PAL 4:3 (352x576) VBR
Audio:
Russian (Dolby AC3, 2 ch)

VTS_15 :
Play Length: 00:19:15
Video: PAL 4:3 (352x576) VBR
Audio:
Russian (Dolby AC3, 2 ch)

VTS_16 :
Play Length: 00:10:00
Video: PAL 4:3 (352x576) VBR
Audio:
Russian (Dolby AC3, 2 ch)

VTS_17 :
Play Length: 00:10:00
Video: PAL 4:3 (352x576) VBR
Audio:
Russian (Dolby AC3, 2 ch)

VTS_18 :
Play Length: 00:09:35
Video: PAL 4:3 (352x576) VBR
Audio:
Russian (Dolby AC3, 2 ch)

VTS_19 :
Play Length: 00:25:47
Video: PAL 4:3 (352x576) VBR
Audio:
Russian (Dolby AC3, 2 ch)

VTS_20 :
Play Length: 00:09:52
Video: PAL 4:3 (352x576) VBR
Audio:
Russian (Dolby AC3, 2 ch)

VTS_21 :
Play Length: 00:08:10
Video: PAL 4:3 (352x576) VBR
Audio:
Russian (Dolby AC3, 2 ch)

VTS_22 :
Play Length: 00:18:12
Video: PAL 4:3 (352x576) VBR
Audio:
Russian (Dolby AC3, 2 ch)

VTS_23 :
Play Length: 00:18:06
Video: PAL 4:3 (352x576) VBR
Audio:
Russian (Dolby AC3, 2 ch)

VTS_24 :
Play Length: 00:17:47
Video: PAL 4:3 (352x576) VBR
Audio:
Russian (Dolby AC3, 2 ch)
General
Complete name : M:\tekushie\Любимые сказки\Любимые сказки 14 2xDVD-5\Диск 1\VIDEO_TS\VTS_01_1.VOB
Format : MPEG-PS
File size : 235 MiB
Duration : 615ms
Overall bit rate mode : Variable
Overall bit rate : 3 201 Mbps

Video
ID : 224 (0xE0)
Format : MPEG Video
Format version : Version 2
Format profile : Main@Main
Format settings, BVOP : Yes
Format settings, Matrix : Custom
Duration : 615ms
Bit rate mode : Variable
Maximum bit rate : 9 300 Kbps
Width : 352 pixels
Height : 576 pixels
Display aspect ratio : 4:3
Frame rate : 25.000 fps
Standard : PAL
Color space : YUV
Chroma subsampling : 4:2:0
Bit depth : 8 bits
Scan type : Interlaced
Scan order : Top Field First
Compression mode : Lossy

Audio
ID : 189 (0xBD)-128 (0x80)
Format : AC-3
Format/Info : Audio Coding 3
Mode extension : CM (complete main)
Format settings, Endianness : Big
Muxing mode : DVD-Video
Duration : 615ms
Bit rate mode : Constant
Bit rate : 448 Kbps
Channel(s) : 6 channels
Channel positions : Front: L C R, Side: L R, LFE
Sampling rate : 48.0 KHz
Bit depth : 16 bits
Compression mode : Lossy
Stream size : 33.6 KiB (0%)

Menu
Бонусы: нет
Скриншоты:
Скриншоты:

Время раздачи: 24/7, круглосуточно, до 10 скачавших
[NNM-Club.me]_Lyubimyie skazki.torrent
 Торрент: Платиновая раздача  Зарегистрирован
 
Скачать


Примагнититься
 Зарегистрирован:   22 Апр 2014 11:31:31
 Размер:   121 GB  (
 Рейтинг:   4,9 (Голосов: 211)
 Поблагодарили:   634
 Проверка:   Оформление проверено модератором 20 Май 2014 15:46:18
Как cкачать  ·  Как раздать  ·  Правильно оформить  ·  Поднять ратио!  
Loading...
famil83
Стаж: 7 лет 9 мес.
Сообщений: 1
Ratio: 1,398
2.18%
Огромное спасибо за сборник.

Я искал весь интернет не нашел этот мультик "ОАЗИС" производства Туркменфильм 1986г.

http://www.animator.ru/db/?p=show_film&fid=4395

Вознаграждение кто найдет этот мультик. Не могу найти. Хочется вспомнить детство.
BigFun
Стаж: 9 лет
Сообщений: 53
Ratio: 251,204
100%
russia.gif
Ждём рип в mkv
IvanovSM
Стаж: 6 лет 3 мес.
Сообщений: 6
Ratio: 18,106
17.39%
Спасибо большое за такую коллекцию!

К сожалению на некоторых мультфильмах заменена оригинальная звуковая дорожка, но их совсем мало.
лунтик2
Стаж: 5 лет 3 мес.
Сообщений: 8
Ratio: 47,551
75.16%
Спасибо!Спасибо!Спасибо!
avals007
Стаж: 5 лет 9 мес.
Сообщений: 19
Ratio: 4,563
0%
скорости дайте ....спасибо
Sax-S
Стаж: 8 лет 6 мес.
Сообщений: 12
Ratio: 13,649
Раздал: 1,512 TB
100%
russia.gif
Спасибо огромное за сборник, но раздача-то где???
rurmax
Стаж: 9 лет 8 мес.
Сообщений: 8
Ratio: 8,941
15.69%
А будет-ли DVD-рип, люди добрые?
Показать сообщения:   
Начать новую тему   Ответить на тему    Торрент-трекер NNM-Club -> Мультфильмы -> Отечественные Мультфильмы (HD, UHD, UHD-LQ, DVD, Сборники) Часовой пояс: GMT + 3
Страницы:   Пред.  1, 2, 3
Страница 3 из 3