Классический форум-трекер
canvas not supported
Нас вместе: 4 117 914

VA - A State of Trance Year Mix 2013 (Mixed by Armin van Buuren) (2013) [FLAC|Lossless]<Trance>


 
 
RSS
Начать новую тему   Ответить на тему    Торрент-трекер NNM-Club -> Electronic -> Trance (Lossless)
Автор Сообщение
Lazyra ®
RG Music
Модератор музыки Electronic
 
Стаж: 9 лет 4 мес.
Сообщений: 4905
Ratio: 1942,781
Раздал: 67,46 TB
Поблагодарили: 109556
100%
Откуда: Владимир
russia.gif
VA - A State of Trance Year Mix 2013 (Mixed by Armin van Buuren) (2013)




Год: 2013
Жанр: Trance
Продолжительность: 01:59:56
Лейбл: Cloud 9
Каталог №: CLDM2013070
Тип рипа: tracks+.cue
Сканы: Комплект
Кодек: FLAC
Битрейт: Lossless

Трек лист:

Трек лист:
01. Intro - The Oath (1:28)
02. Omnia - The Light (1:13)
03. Ilan Bluestone - Sinai (0:44)
04. Headstrong feat. Stine Grove - Satellite (Aurosonic Progressive Mix) (0:59)
05. BT - Skylarking (1:13)
06. Andy Duguid feat. Jaren - 7even (0:44)
07. Omnia feat. Everything By Electricity - Bones (0:44)
08. Christian Burns, Paul Oakenfold & JES - As We Collide (Orjan Nilsen Remix) (0:29)
09. Band Of Horses - The Funeral (Dash Berlin Remix) (1:34)
10. Denis Kenzo feat. Sveta B - Lullaby Lonely (Progressive Mix) (0:36)
11. Dash Berlin & Alexander Popov feat. Jonathan Mendelsohn - Steal You Away (Club Mix) (0:59)
12. Hardwell feat. Amba Shepherd - Apollo (Dash Berlin 4AM Remix) (0:44)
13. Armin van Buuren feat. Emma Hewitt - Forever Is Ours (1:13)
14. Above & Beyond feat. Zoe Johnston - Alchemy (Above & Beyond Club Mix) (1:13)
15. Audien - Wayfare (0:44)
16. Omnia - Immersion (0:59)
17. Orjan Nilsen - Violetta (0:59)
18. W&W - Thunder (0:29)
19. W&W & Ummet Ozcan - The Code (0:14)
20. Mark Sixma - Requiem (0:44)
21. Orjan Nilsen - XIING (1:06)
22. Ferry Corsten feat. Jenny Wahlstrom - Many Ways (1:04)
23. Lange feat. Ilseviolin - Violin's Revenge (Dark Club Mix) (0:44)
24. Ronski Speed feat. Lucy Saunders - Rise Again (Omnia Remix) (1:12)
25. Johan de Kock & Stefan Viljoen feat. Nanje Nowack - Silence (Tommy Johnson Remix) (2:10)
26. Kat Krazy feat. elkka - Siren (Armin van Buuren Remix) (0:43)
27. Bobina with Ana Criado - For Who I Am (Beat Service Remix) (1:49)
28. Armin van Buuren vs Arty - Nehalennia (1:12)
29. Super8 & Tab - L.A. (0:59)
30. Armin van Buuren feat. Richard Bedford - Love Never Came (0:59)
31. BT & Aqualung - Surrounded (Super8 & Tab Remix) (1:06)
32. Mark Knight & D. Ramirez V Underworld - Downpipe (Armin van Buuren Remix) (0:59)
33. Armin van Buuren & W&W - D# Fat (1:35)
34. Armin van Buuren feat. Cindy Alma - Beautiful Life (Protoculture Remix) (0:44)
35. Armin van Buuren feat. Trevor Guthrie - This Is What It Feels Like (W&W Remix) (1:23)
36. Armin van Buuren feat. Laura Jansen - Sound Of The Drums (0:29)
37. Estiva - Dinodrums (0:29)
38. Andy Moor & Betsie Larkin - Love Again (Andrew Rayel Remix) (1:40)
39. Conjure One feat. Aruna - Still Holding On (Arisen Flame Remix) (1:54)
40. Arisen Flame - Gladius (0:57)
41. Shogun feat. Tania Zygar - Find Me (0:58)
42. Alex M.O.R.P.H. feat. Natalie Gioia - Dreams (1:27)
43. Heatbeat - Game Over (0:54)
44. Cosmic Gate - So Get Up (0:29)
45. Emma Hewitt - Rewind (Mikkas Remix) (0:43)
46. Above & Beyond - Walter White (0:43)
47. Armin van Buuren feat. Fiora - Waiting For The Night (0:58)
48. Dash Berlin feat. Christina Novelli - Jar Of Hearts (Club Mix) (1:41)
49. Dash Berlin feat. Sarah Howells - Go It Alone (Andrew Rayel Remix) (1:20)
50. Giuseppe Ottaviani & Eric Lumiere - Love Will Bring It All Around (1:49)
51. Mark Sixma - Character (0:43)
52. Beat Service - Aurora (0:42)
53. W&W - Lift Off! (0:15)
54. Andrew Rayel & Jwaydan - Until The End (Club Mix) (2:08)
55. Armin van Buuren Presents Gaia - Humming The Lights (0:56)
56. Alexandre Bergheau - Damavand (1:11)
57. Rank 1 vs M.I.K.E. - Elements Of Nature (1:26)

Продолжительность: 00:59:39
Код:

Exact Audio Copy V1.0 beta 2 from 29. April 2011

EAC extraction logfile from 23. April 2014, 9:57

Armin van Buuren / A State Of Trance Year Mix 2013

Used drive  : HL-DT-STDVDRAM GT20N   Adapter: 2  ID: 0

Read mode               : Secure
Utilize accurate stream : Yes
Defeat audio cache      : Yes
Make use of C2 pointers : No

Read offset correction                      : 667
Overread into Lead-In and Lead-Out          : No
Fill up missing offset samples with silence : Yes
Delete leading and trailing silent blocks   : No
Null samples used in CRC calculations       : Yes
Used interface                              : Installed external ASPI interface
Gap handling                                : Appended to previous track

Used output format              : User Defined Encoder
Selected bitrate                : 896 kBit/s
Quality                         : High
Add ID3 tag                     : Yes
Command line compressor         : C:\Program Files\Exact Audio Copy\Flac\flac.exe
Additional command line options : -V -8 -T "Genre=%genre%" -T "Artist=%artist%" -T "Title=%title%" -T "Album=%albumtitle%" -T "Date=%year%" -T "Tracknumber=%tracknr%" -T "Far_Cry=%comment%" %source%

TOC of the extracted CD

     Track |   Start  |  Length  | Start sector | End sector
    ---------------------------------------------------------
        1  |  0:00.00 |  1:28.27 |         0    |     6626
        2  |  1:28.27 |  1:13.62 |      6627    |    12163
        3  |  2:42.14 |  0:44.10 |     12164    |    15473
        4  |  3:26.24 |  0:59.18 |     15474    |    19916
        5  |  4:25.42 |  1:13.63 |     19917    |    25454
        6  |  5:39.30 |  0:44.22 |     25455    |    28776
        7  |  6:23.52 |  0:44.24 |     28777    |    32100
        8  |  7:08.01 |  0:29.42 |     32101    |    34317
        9  |  7:37.43 |  1:34.10 |     34318    |    41377
       10  |  9:11.53 |  0:36.34 |     41378    |    44111
       11  |  9:48.12 |  0:59.42 |     44112    |    48578
       12  | 10:47.54 |  0:44.20 |     48579    |    51898
       13  | 11:31.74 |  1:13.63 |     51899    |    57436
       14  | 12:45.62 |  1:13.65 |     57437    |    62976
       15  | 13:59.52 |  0:44.25 |     62977    |    66301
       16  | 14:44.02 |  0:59.05 |     66302    |    70731
       17  | 15:43.07 |  0:59.06 |     70732    |    75162
       18  | 16:42.13 |  0:29.40 |     75163    |    77377
       19  | 17:11.53 |  0:14.59 |     77378    |    78486
       20  | 17:26.37 |  0:44.21 |     78487    |    81807
       21  | 18:10.58 |  1:06.36 |     81808    |    86793
       22  | 19:17.19 |  1:04.46 |     86794    |    91639
       23  | 20:21.65 |  0:44.23 |     91640    |    94962
       24  | 21:06.13 |  1:12.55 |     94963    |   100417
       25  | 22:18.68 |  2:10.68 |    100418    |   110235
       26  | 24:29.61 |  0:43.47 |    110236    |   113507
       27  | 25:13.33 |  1:49.08 |    113508    |   121690
       28  | 27:02.41 |  1:12.54 |    121691    |   127144
       29  | 28:15.20 |  0:59.06 |    127145    |   131575
       30  | 29:14.26 |  0:59.05 |    131576    |   136005
       31  | 30:13.31 |  1:06.32 |    136006    |   140987
       32  | 31:19.63 |  0:59.08 |    140988    |   145420
       33  | 32:18.71 |  1:35.24 |    145421    |   152569
       34  | 33:54.20 |  0:44.72 |    152570    |   155941
       35  | 34:39.17 |  1:23.51 |    155942    |   162217
       36  | 36:02.68 |  0:29.08 |    162218    |   164400
       37  | 36:32.01 |  0:29.06 |    164401    |   166581
       38  | 37:01.07 |  1:40.20 |    166582    |   174101
       39  | 38:41.27 |  1:54.48 |    174102    |   182699
       40  | 40:36.00 |  0:57.23 |    182700    |   186997
       41  | 41:33.23 |  0:58.16 |    186998    |   191363
       42  | 42:31.39 |  1:27.20 |    191364    |   197908
       43  | 43:58.59 |  0:54.41 |    197909    |   201999
       44  | 44:53.25 |  0:29.06 |    202000    |   204180
       45  | 45:22.31 |  0:43.46 |    204181    |   207451
       46  | 46:06.02 |  0:43.49 |    207452    |   210725
       47  | 46:49.51 |  0:58.14 |    210726    |   215089
       48  | 47:47.65 |  1:41.62 |    215090    |   222726
       49  | 49:29.52 |  1:20.00 |    222727    |   228726
       50  | 50:49.52 |  1:49.07 |    228727    |   236908
       51  | 52:38.59 |  0:43.48 |    236909    |   240181
       52  | 53:22.32 |  0:42.73 |    240182    |   243404
       53  | 54:05.30 |  0:15.60 |    243405    |   244589
       54  | 54:21.15 |  2:08.11 |    244590    |   254200
       55  | 56:29.26 |  0:56.66 |    254201    |   258466
       56  | 57:26.17 |  1:11.48 |    258467    |   263839
       57  | 58:37.65 |  1:26.19 |    263840    |   270308

Track  1

     Filename D:\Armin van Buuren - A State Of Trance Year Mix 2013 - 2013\CD 1\01. Intro - The Oath.wav

     Pre-gap length  0:00:02.00

     Peak level 96.6 %
     Extraction speed 1.9 X
     Track quality 100.0 %
     Test CRC 57B99114
     Copy CRC 57B99114
     Accurately ripped (confidence 4)  [2B55D926]  (AR v2)
     Copy OK

Track  2

     Filename D:\Armin van Buuren - A State Of Trance Year Mix 2013 - 2013\CD 1\02. Omnia - The Light.wav

     Peak level 96.6 %
     Extraction speed 1.8 X
     Track quality 100.0 %
     Test CRC F95BB670
     Copy CRC F95BB670
     Accurately ripped (confidence 4)  [8CD2B10A]  (AR v2)
     Copy OK

Track  3

     Filename D:\Armin van Buuren - A State Of Trance Year Mix 2013 - 2013\CD 1\03. Ilan Bluestone - Sinai.wav

     Peak level 96.6 %
     Extraction speed 1.0 X
     Track quality 99.7 %
     Test CRC 9006AEDE
     Copy CRC 9006AEDE
     Accurately ripped (confidence 4)  [04C31570]  (AR v2)
     Copy OK

Track  4

     Filename D:\Armin van Buuren - A State Of Trance Year Mix 2013 - 2013\CD 1\04. Headstrong feat. Stine Grove - Satellite (Aurosonic Progressive Mix).wav

     Peak level 96.6 %
     Extraction speed 1.8 X
     Track quality 100.0 %
     Test CRC 136A361F
     Copy CRC 136A361F
     Accurately ripped (confidence 4)  [57DDEE41]  (AR v2)
     Copy OK

Track  5

     Filename D:\Armin van Buuren - A State Of Trance Year Mix 2013 - 2013\CD 1\05. BT - Skylarking.wav

     Peak level 96.6 %
     Extraction speed 2.0 X
     Track quality 100.0 %
     Test CRC 797D1808
     Copy CRC 797D1808
     Accurately ripped (confidence 4)  [AEFB0189]  (AR v2)
     Copy OK

Track  6

     Filename D:\Armin van Buuren - A State Of Trance Year Mix 2013 - 2013\CD 1\06. Andy Duguid feat. Jaren - 7even.wav

     Peak level 96.6 %
     Extraction speed 1.7 X
     Track quality 100.0 %
     Test CRC 1E129827
     Copy CRC 1E129827
     Accurately ripped (confidence 4)  [8451B870]  (AR v2)
     Copy OK

Track  7

     Filename D:\Armin van Buuren - A State Of Trance Year Mix 2013 - 2013\CD 1\07. Omnia feat. Everything By Electricity - Bones.wav

     Peak level 96.6 %
     Extraction speed 1.7 X
     Track quality 100.0 %
     Test CRC 6ABCEE88
     Copy CRC 6ABCEE88
     Accurately ripped (confidence 4)  [03B8D643]  (AR v2)
     Copy OK

Track  8

     Filename D:\Armin van Buuren - A State Of Trance Year Mix 2013 - 2013\CD 1\08. Christian Burns, Paul Oakenfold & JES - As We Collide (Orjan Nilsen Remix).wav

     Peak level 96.6 %
     Extraction speed 0.8 X
     Track quality 99.6 %
     Test CRC 651FE6A1
     Copy CRC 651FE6A1
     Accurately ripped (confidence 4)  [9D46C66B]  (AR v2)
     Copy OK

Track  9

     Filename D:\Armin van Buuren - A State Of Trance Year Mix 2013 - 2013\CD 1\09. Band Of Horses - The Funeral (Dash Berlin Remix).wav

     Peak level 96.6 %
     Extraction speed 2.2 X
     Track quality 100.0 %
     Test CRC 06AE8E37
     Copy CRC 06AE8E37
     Accurately ripped (confidence 4)  [22E816E9]  (AR v2)
     Copy OK

Track 10

     Filename D:\Armin van Buuren - A State Of Trance Year Mix 2013 - 2013\CD 1\10. Denis Kenzo feat. Sveta B - Lullaby Lonely (Progressive Mix).wav

     Peak level 96.6 %
     Extraction speed 1.5 X
     Track quality 100.0 %
     Test CRC 0F3F5543
     Copy CRC 0F3F5543
     Accurately ripped (confidence 4)  [3F8FD94D]  (AR v2)
     Copy OK

Track 11

     Filename D:\Armin van Buuren - A State Of Trance Year Mix 2013 - 2013\CD 1\11. Dash Berlin & Alexander Popov feat. Jonathan Mendelsohn - Steal You Away (Club Mix).wav

     Peak level 96.6 %
     Extraction speed 2.1 X
     Track quality 100.0 %
     Test CRC FFA1EF09
     Copy CRC FFA1EF09
     Accurately ripped (confidence 4)  [347B3EEA]  (AR v2)
     Copy OK

Track 12

     Filename D:\Armin van Buuren - A State Of Trance Year Mix 2013 - 2013\CD 1\12. Hardwell feat. Amba Shepherd - Apollo (Dash Berlin 4AM Remix).wav

     Peak level 96.6 %
     Extraction speed 1.9 X
     Track quality 100.0 %
     Test CRC CE370C30
     Copy CRC CE370C30
     Accurately ripped (confidence 4)  [3C3F7B5A]  (AR v2)
     Copy OK

Track 13

     Filename D:\Armin van Buuren - A State Of Trance Year Mix 2013 - 2013\CD 1\13. Armin van Buuren feat. Emma Hewitt - Forever Is Ours.wav

     Peak level 96.6 %
     Extraction speed 2.3 X
     Track quality 100.0 %
     Test CRC 1297F30A
     Copy CRC 1297F30A
     Accurately ripped (confidence 4)  [3BD7ADF0]  (AR v2)
     Copy OK

Track 14

     Filename D:\Armin van Buuren - A State Of Trance Year Mix 2013 - 2013\CD 1\14. Above & Beyond feat. Zoe Johnston - Alchemy (Above & Beyond Club Mix).wav

     Peak level 96.6 %
     Extraction speed 2.2 X
     Track quality 100.0 %
     Test CRC FB10F21B
     Copy CRC FB10F21B
     Accurately ripped (confidence 4)  [A31B619C]  (AR v2)
     Copy OK

Track 15

     Filename D:\Armin van Buuren - A State Of Trance Year Mix 2013 - 2013\CD 1\15. Audien - Wayfare.wav

     Peak level 96.6 %
     Extraction speed 1.8 X
     Track quality 100.0 %
     Test CRC A0977ED1
     Copy CRC A0977ED1
     Accurately ripped (confidence 4)  [A464E9C6]  (AR v2)
     Copy OK

Track 16

     Filename D:\Armin van Buuren - A State Of Trance Year Mix 2013 - 2013\CD 1\16. Omnia - Immersion.wav

     Peak level 96.6 %
     Extraction speed 1.6 X
     Track quality 99.8 %
     Test CRC 10347DD1
     Copy CRC 10347DD1
     Accurately ripped (confidence 4)  [87DB029F]  (AR v2)
     Copy OK

Track 17

     Filename D:\Armin van Buuren - A State Of Trance Year Mix 2013 - 2013\CD 1\17. Orjan Nilsen - Violetta.wav

     Peak level 96.6 %
     Extraction speed 1.6 X
     Track quality 99.8 %
     Test CRC EDB6B9C3
     Copy CRC EDB6B9C3
     Accurately ripped (confidence 4)  [11E0B521]  (AR v2)
     Copy OK

Track 18

     Filename D:\Armin van Buuren - A State Of Trance Year Mix 2013 - 2013\CD 1\18. W&W - Thunder.wav

     Peak level 96.6 %
     Extraction speed 1.0 X
     Track quality 99.6 %
     Test CRC 5CC68390
     Copy CRC 5CC68390
     Accurately ripped (confidence 4)  [CEAF4466]  (AR v2)
     Copy OK

Track 19

     Filename D:\Armin van Buuren - A State Of Trance Year Mix 2013 - 2013\CD 1\19. W&W & Ummet Ozcan - The Code.wav

     Peak level 96.6 %
     Extraction speed 0.9 X
     Track quality 100.0 %
     Test CRC BD439DED
     Copy CRC BD439DED
     Accurately ripped (confidence 4)  [6E2BA7F2]  (AR v2)
     Copy OK

Track 20

     Filename D:\Armin van Buuren - A State Of Trance Year Mix 2013 - 2013\CD 1\20. Mark Sixma - Requiem.wav

     Peak level 96.6 %
     Extraction speed 2.1 X
     Track quality 100.0 %
     Test CRC 3FB5ECF4
     Copy CRC 3FB5ECF4
     Accurately ripped (confidence 4)  [033A50DF]  (AR v2)
     Copy OK

Track 21

     Filename D:\Armin van Buuren - A State Of Trance Year Mix 2013 - 2013\CD 1\21. Orjan Nilsen - XIING.wav

     Peak level 96.6 %
     Extraction speed 2.5 X
     Track quality 100.0 %
     Test CRC 3B038A7B
     Copy CRC 3B038A7B
     Accurately ripped (confidence 4)  [7D1C00D6]  (AR v2)
     Copy OK

Track 22

     Filename D:\Armin van Buuren - A State Of Trance Year Mix 2013 - 2013\CD 1\22. Ferry Corsten feat. Jenny Wahlstrom - Many Ways.wav

     Peak level 96.6 %
     Extraction speed 2.4 X
     Track quality 100.0 %
     Test CRC CE4289AD
     Copy CRC CE4289AD
     Accurately ripped (confidence 4)  [758B3FF4]  (AR v2)
     Copy OK

Track 23

     Filename D:\Armin van Buuren - A State Of Trance Year Mix 2013 - 2013\CD 1\23. Lange feat. Ilseviolin - Violin's Revenge (Dark Club Mix).wav

     Peak level 96.6 %
     Extraction speed 2.1 X
     Track quality 100.0 %
     Test CRC 3FD69491
     Copy CRC 3FD69491
     Accurately ripped (confidence 4)  [BC50608F]  (AR v2)
     Copy OK

Track 24

     Filename D:\Armin van Buuren - A State Of Trance Year Mix 2013 - 2013\CD 1\24. Ronski Speed feat. Lucy Saunders - Rise Again (Omnia Remix).wav

     Peak level 96.6 %
     Extraction speed 1.9 X
     Track quality 99.8 %
     Test CRC FF701FC3
     Copy CRC FF701FC3
     Accurately ripped (confidence 4)  [93BBDBD3]  (AR v2)
     Copy OK

Track 25

     Filename D:\Armin van Buuren - A State Of Trance Year Mix 2013 - 2013\CD 1\25. Johan de Kock & Stefan Viljoen feat. Nanje Nowack - Silence (Tommy Johnson Remix).wav

     Peak level 96.6 %
     Extraction speed 3.2 X
     Track quality 100.0 %
     Test CRC FFB27E5C
     Copy CRC FFB27E5C
     Accurately ripped (confidence 4)  [DD1C261F]  (AR v2)
     Copy OK

Track 26

     Filename D:\Armin van Buuren - A State Of Trance Year Mix 2013 - 2013\CD 1\26. Kat Krazy feat. elkka - Siren (Armin van Buuren Remix).wav

     Peak level 96.6 %
     Extraction speed 2.3 X
     Track quality 100.0 %
     Test CRC E721D3C5
     Copy CRC E721D3C5
     Accurately ripped (confidence 4)  [226F5390]  (AR v2)
     Copy OK

Track 27

     Filename D:\Armin van Buuren - A State Of Trance Year Mix 2013 - 2013\CD 1\27. Bobina with Ana Criado - For Who I Am (Beat Service Remix).wav

     Peak level 96.6 %
     Extraction speed 3.1 X
     Track quality 100.0 %
     Test CRC 1FBEE480
     Copy CRC 1FBEE480
     Accurately ripped (confidence 4)  [823FB48C]  (AR v2)
     Copy OK

Track 28

     Filename D:\Armin van Buuren - A State Of Trance Year Mix 2013 - 2013\CD 1\28. Armin van Buuren vs Arty - Nehalennia.wav

     Peak level 96.6 %
     Extraction speed 2.1 X
     Track quality 99.8 %
     Test CRC 794A0613
     Copy CRC 794A0613
     Accurately ripped (confidence 4)  [5F384ECD]  (AR v2)
     Copy OK

Track 29

     Filename D:\Armin van Buuren - A State Of Trance Year Mix 2013 - 2013\CD 1\29. Super8 & Tab - L.A..wav

     Peak level 96.6 %
     Extraction speed 1.9 X
     Track quality 99.8 %
     Test CRC 84E66DEF
     Copy CRC 84E66DEF
     Accurately ripped (confidence 4)  [90F96A53]  (AR v2)
     Copy OK

Track 30

     Filename D:\Armin van Buuren - A State Of Trance Year Mix 2013 - 2013\CD 1\30. Armin van Buuren feat. Richard Bedford - Love Never Came.wav

     Peak level 96.6 %
     Extraction speed 1.9 X
     Track quality 99.8 %
     Test CRC 4DCFA853
     Copy CRC 4DCFA853
     Accurately ripped (confidence 4)  [E3148B77]  (AR v2)
     Copy OK

Track 31

     Filename D:\Armin van Buuren - A State Of Trance Year Mix 2013 - 2013\CD 1\31. BT & Aqualung - Surrounded (Super8 & Tab Remix).wav

     Peak level 96.6 %
     Extraction speed 2.9 X
     Track quality 100.0 %
     Test CRC F074953F
     Copy CRC F074953F
     Accurately ripped (confidence 4)  [3046E42C]  (AR v2)
     Copy OK

Track 32

     Filename D:\Armin van Buuren - A State Of Trance Year Mix 2013 - 2013\CD 1\32. Mark Knight & D. Ramirez V Underworld - Downpipe (Armin van Buuren Remix).wav

     Peak level 96.6 %
     Extraction speed 1.9 X
     Track quality 99.8 %
     Test CRC 91CDB12E
     Copy CRC 91CDB12E
     Accurately ripped (confidence 4)  [80A5A02A]  (AR v2)
     Copy OK

Track 33

     Filename D:\Armin van Buuren - A State Of Trance Year Mix 2013 - 2013\CD 1\33. Armin van Buuren & W&W - D# Fat.wav

     Peak level 96.6 %
     Extraction speed 3.3 X
     Track quality 100.0 %
     Test CRC BA141789
     Copy CRC BA141789
     Accurately ripped (confidence 4)  [CE414D86]  (AR v2)
     Copy OK

Track 34

     Filename D:\Armin van Buuren - A State Of Trance Year Mix 2013 - 2013\CD 1\34. Armin van Buuren feat. Cindy Alma - Beautiful Life (Protoculture Remix).wav

     Peak level 96.6 %
     Extraction speed 2.5 X
     Track quality 100.0 %
     Test CRC 59CF26F8
     Copy CRC 59CF26F8
     Accurately ripped (confidence 4)  [EDF99363]  (AR v2)
     Copy OK

Track 35

     Filename D:\Armin van Buuren - A State Of Trance Year Mix 2013 - 2013\CD 1\35. Armin van Buuren feat. Trevor Guthrie - This Is What It Feels Like (W&W Remix).wav

     Peak level 96.6 %
     Extraction speed 2.4 X
     Track quality 99.8 %
     Test CRC D4966147
     Copy CRC D4966147
     Accurately ripped (confidence 4)  [9A20C1B8]  (AR v2)
     Copy OK

Track 36

     Filename D:\Armin van Buuren - A State Of Trance Year Mix 2013 - 2013\CD 1\36. Armin van Buuren feat. Laura Jansen - Sound Of The Drums.wav

     Peak level 96.6 %
     Extraction speed 1.9 X
     Track quality 100.0 %
     Test CRC 578CD9E0
     Copy CRC 578CD9E0
     Accurately ripped (confidence 4)  [5312EFB5]  (AR v2)
     Copy OK

Track 37

     Filename D:\Armin van Buuren - A State Of Trance Year Mix 2013 - 2013\CD 1\37. Estiva - Dinodrums.wav

     Peak level 96.6 %
     Extraction speed 1.9 X
     Track quality 100.0 %
     Test CRC 0981AD2A
     Copy CRC 0981AD2A
     Accurately ripped (confidence 4)  [EDF7DA85]  (AR v2)
     Copy OK

Track 38

     Filename D:\Armin van Buuren - A State Of Trance Year Mix 2013 - 2013\CD 1\38. Andy Moor & Betsie Larkin - Love Again (Andrew Rayel Remix).wav

     Peak level 96.6 %
     Extraction speed 2.6 X
     Track quality 99.8 %
     Test CRC A68858D8
     Copy CRC A68858D8
     Accurately ripped (confidence 4)  [C5F8070F]  (AR v2)
     Copy OK

Track 39

     Filename D:\Armin van Buuren - A State Of Trance Year Mix 2013 - 2013\CD 1\39. Conjure One feat. Aruna - Still Holding On (Arisen Flame Remix).wav

     Peak level 96.6 %
     Extraction speed 3.6 X
     Track quality 100.0 %
     Test CRC CCA8694D
     Copy CRC CCA8694D
     Accurately ripped (confidence 4)  [B8565623]  (AR v2)
     Copy OK

Track 40

     Filename D:\Armin van Buuren - A State Of Trance Year Mix 2013 - 2013\CD 1\40. Arisen Flame - Gladius.wav

     Peak level 96.6 %
     Extraction speed 2.8 X
     Track quality 100.0 %
     Test CRC B97A8067
     Copy CRC B97A8067
     Accurately ripped (confidence 4)  [FE7DAE72]  (AR v2)
     Copy OK

Track 41

     Filename D:\Armin van Buuren - A State Of Trance Year Mix 2013 - 2013\CD 1\41. Shogun feat. Tania Zygar - Find Me.wav

     Peak level 96.6 %
     Extraction speed 3.0 X
     Track quality 100.0 %
     Test CRC 0E2A75C8
     Copy CRC 0E2A75C8
     Accurately ripped (confidence 4)  [4F488772]  (AR v2)
     Copy OK

Track 42

     Filename D:\Armin van Buuren - A State Of Trance Year Mix 2013 - 2013\CD 1\42. Alex M.O.R.P.H. feat. Natalie Gioia - Dreams.wav

     Peak level 96.6 %
     Extraction speed 2.6 X
     Track quality 99.8 %
     Test CRC 885E5FEE
     Copy CRC 885E5FEE
     Accurately ripped (confidence 4)  [1D62E9DF]  (AR v2)
     Copy OK

Track 43

     Filename D:\Armin van Buuren - A State Of Trance Year Mix 2013 - 2013\CD 1\43. Heatbeat - Game Over.wav

     Peak level 96.6 %
     Extraction speed 2.9 X
     Track quality 100.0 %
     Test CRC 8D9BC42E
     Copy CRC 8D9BC42E
     Accurately ripped (confidence 4)  [9B330452]  (AR v2)
     Copy OK

Track 44

     Filename D:\Armin van Buuren - A State Of Trance Year Mix 2013 - 2013\CD 1\44. Cosmic Gate - So Get Up.wav

     Peak level 96.6 %
     Extraction speed 2.0 X
     Track quality 100.0 %
     Test CRC EFBB477F
     Copy CRC EFBB477F
     Accurately ripped (confidence 4)  [EF0136F1]  (AR v2)
     Copy OK

Track 45

     Filename D:\Armin van Buuren - A State Of Trance Year Mix 2013 - 2013\CD 1\45. Emma Hewitt - Rewind (Mikkas Remix).wav

     Peak level 96.6 %
     Extraction speed 2.7 X
     Track quality 100.0 %
     Test CRC 882B12EB
     Copy CRC 882B12EB
     Accurately ripped (confidence 4)  [9D19A299]  (AR v2)
     Copy OK

Track 46

     Filename D:\Armin van Buuren - A State Of Trance Year Mix 2013 - 2013\CD 1\46. Above & Beyond - Walter White.wav

     Peak level 96.6 %
     Extraction speed 2.8 X
     Track quality 100.0 %
     Test CRC 1103C62C
     Copy CRC 1103C62C
     Accurately ripped (confidence 4)  [4BAB84BC]  (AR v2)
     Copy OK

Track 47

     Filename D:\Armin van Buuren - A State Of Trance Year Mix 2013 - 2013\CD 1\47. Armin van Buuren feat. Fiora - Waiting For The Night.wav

     Peak level 96.6 %
     Extraction speed 3.2 X
     Track quality 100.0 %
     Test CRC CA6D3406
     Copy CRC CA6D3406
     Accurately ripped (confidence 4)  [590AFC4C]  (AR v2)
     Copy OK

Track 48

     Filename D:\Armin van Buuren - A State Of Trance Year Mix 2013 - 2013\CD 1\48. Dash Berlin feat. Christina Novelli - Jar Of Hearts (Club Mix).wav

     Peak level 96.6 %
     Extraction speed 3.6 X
     Track quality 100.0 %
     Test CRC 57714AAB
     Copy CRC 57714AAB
     Accurately ripped (confidence 4)  [7428AE8E]  (AR v2)
     Copy OK

Track 49

     Filename D:\Armin van Buuren - A State Of Trance Year Mix 2013 - 2013\CD 1\49. Dash Berlin feat. Sarah Howells - Go It Alone (Andrew Rayel Remix).wav

     Peak level 96.6 %
     Extraction speed 2.6 X
     Track quality 99.8 %
     Test CRC 3C335434
     Copy CRC 3C335434
     Accurately ripped (confidence 4)  [D4E4D86A]  (AR v2)
     Copy OK

Track 50

     Filename D:\Armin van Buuren - A State Of Trance Year Mix 2013 - 2013\CD 1\50. Giuseppe Ottaviani & Eric Lumiere - Love Will Bring It All Around.wav

     Peak level 96.6 %
     Extraction speed 3.8 X
     Track quality 100.0 %
     Test CRC A0928C6E
     Copy CRC A0928C6E
     Accurately ripped (confidence 4)  [9A36529E]  (AR v2)
     Copy OK

Track 51

     Filename D:\Armin van Buuren - A State Of Trance Year Mix 2013 - 2013\CD 1\51. Mark Sixma - Character.wav

     Peak level 96.6 %
     Extraction speed 2.9 X
     Track quality 100.0 %
     Test CRC 6DE12D42
     Copy CRC 6DE12D42
     Accurately ripped (confidence 4)  [4F08EB82]  (AR v2)
     Copy OK

Track 52

     Filename D:\Armin van Buuren - A State Of Trance Year Mix 2013 - 2013\CD 1\52. Beat Service - Aurora.wav

     Peak level 96.6 %
     Extraction speed 2.9 X
     Track quality 100.0 %
     Test CRC AC51CA83
     Copy CRC AC51CA83
     Accurately ripped (confidence 4)  [F2E44C91]  (AR v2)
     Copy OK

Track 53

     Filename D:\Armin van Buuren - A State Of Trance Year Mix 2013 - 2013\CD 1\53. W&W - Lift Off!.wav

     Peak level 96.6 %
     Extraction speed 1.4 X
     Track quality 100.0 %
     Test CRC 21BEB178
     Copy CRC 21BEB178
     Accurately ripped (confidence 4)  [54960CEA]  (AR v2)
     Copy OK

Track 54

     Filename D:\Armin van Buuren - A State Of Trance Year Mix 2013 - 2013\CD 1\54. Andrew Rayel & Jwaydan - Until The End (Club Mix).wav

     Peak level 96.6 %
     Extraction speed 3.3 X
     Track quality 99.9 %
     Test CRC 73C371D7
     Copy CRC 73C371D7
     Accurately ripped (confidence 4)  [1C6CCF85]  (AR v2)
     Copy OK

Track 55

     Filename D:\Armin van Buuren - A State Of Trance Year Mix 2013 - 2013\CD 1\55. Armin van Buuren Presents Gaia - Humming The Lights.wav

     Peak level 96.6 %
     Extraction speed 3.3 X
     Track quality 100.0 %
     Test CRC D69FD7FD
     Copy CRC D69FD7FD
     Accurately ripped (confidence 4)  [7F7A101D]  (AR v2)
     Copy OK

Track 56

     Filename D:\Armin van Buuren - A State Of Trance Year Mix 2013 - 2013\CD 1\56. Alexandre Bergheau - Damavand.wav

     Peak level 96.6 %
     Extraction speed 3.5 X
     Track quality 100.0 %
     Test CRC 19BEBD3D
     Copy CRC 19BEBD3D
     Accurately ripped (confidence 4)  [5CD2A6CB]  (AR v2)
     Copy OK

Track 57

     Filename D:\Armin van Buuren - A State Of Trance Year Mix 2013 - 2013\CD 1\57. Rank 1 vs M.I.K.E. - Elements Of Nature.wav

     Peak level 96.6 %
     Extraction speed 3.9 X
     Track quality 100.0 %
     Test CRC C5E1655F
     Copy CRC C5E1655F
     Accurately ripped (confidence 3)  [7CCB5DB5]  (AR v2)
     Copy OK

All tracks accurately ripped

No errors occurred

End of status report

==== Log checksum 441D5E98F09F7273235EE39F467EA88AD6657F31DE0E0A21BAD80B115E62B209 ====

Код:

-----------------------

DON'T MODIFY THIS FILE

-----------------------

PERFORMER: auCDtect Task Manager, ver. 1.5.1RC6 build 1.5.1.7
Copyright (c) 2008-2010 y-soft. All rights reserved
http://y-soft.org

ANALYZER: auCDtect: CD records authenticity detector, version 0.8.2
Copyright (c) 2004 Oleg Berngardt. All rights reserved.
Copyright (c) 2004 Alexander Djourik. All rights reserved.

FILE: 57. Rank 1 vs M.I.K.E. - Elements Of Nature.flac
  Size: 12189642 Hash: 9D8A9F4788942EBA5FB4ECD33F178AFA Accuracy: -m0
  Conclusion: CDDA 100%
  Signature: A5789A94C0C26AEADA29FFC626FC57AB08906252
FILE: 56. Alexandre Bergheau - Damavand.flac
  Size: 10357810 Hash: 0211C605335622C7B25F90ACBC0DA464 Accuracy: -m0
  Conclusion: CDDA 99%
  Signature: 3B8959661EB1C568BCA08E61F44CB5BC8FBD1E26
FILE: 55. Armin van Buuren Presents Gaia - Humming The Lights.flac
  Size: 8368424 Hash: 67404DB24A20E8156C46F6E9545C6A2C Accuracy: -m0
  Conclusion: CDDA 100%
  Signature: F49FAC389E4C765A76731AD3A9A3280ADBCBB22B
FILE: 54. Andrew Rayel & Jwaydan - Until The End (Club Mix).flac
  Size: 19022880 Hash: 0F0AEB11081FDE11F1147D33C7F847D5 Accuracy: -m0
  Conclusion: CDDA 100%
  Signature: 1664817A3B4EC027D34F4FD22B8BBF370972D8EC
FILE: 53. W&W - Lift Off!.flac
  Size: 2221811 Hash: 41DBF8049906058AF8C79FC30F5D13FA Accuracy: -m0
  Conclusion: CDDA 100%
  Signature: 78CE674F432B06EA2BB682E324FF132C975A1E70
FILE: 52. Beat Service - Aurora.flac
  Size: 6471257 Hash: 513A4F46BF002A1EE28D94E7BD6EF391 Accuracy: -m0
  Conclusion: CDDA 100%
  Signature: E6F985C75BE97571881D7B82BE14753ED4B033BC
FILE: 51. Mark Sixma - Character.flac
  Size: 6484166 Hash: 855D095371840008ABF7D80C353C956C Accuracy: -m0
  Conclusion: CDDA 100%
  Signature: F532BDAA7E5D6D3E72A65F51464872E124EA5FBD
FILE: 50. Giuseppe Ottaviani & Eric Lumiere - Love Will Bring It All Around.flac
  Size: 15675152 Hash: AA65A27A307C81AC2152AEA0A594B43D Accuracy: -m0
  Conclusion: CDDA 100%
  Signature: DD7B6809AF40D62F4E6C83653A7110C0AF717E7B
FILE: 49. Dash Berlin feat. Sarah Howells - Go It Alone (Andrew Rayel Remix).flac
  Size: 11520595 Hash: A9ACE0409C3869118A1C3FEF02B08734 Accuracy: -m0
  Conclusion: CDDA 100%
  Signature: DFD5695D2B2CF95B1D0C84A89BBFF8BE81D1DB89
FILE: 48. Dash Berlin feat. Christina Novelli - Jar Of Hearts (Club Mix).flac
  Size: 14331518 Hash: 32E11B443CA55C809B77919BC1B502D7 Accuracy: -m0
  Conclusion: CDDA 100%
  Signature: 3B55BB51570CDBA3FCE3F82D02B0216C58511D9D
FILE: 47. Armin van Buuren feat. Fiora - Waiting For The Night.flac
  Size: 8086889 Hash: 3E0E0058C66885CBC8FFA118C101EAB8 Accuracy: -m0
  Conclusion: CDDA 100%
  Signature: B0B0DE1DE157DD962CCA1CF772B782487E29AB79
FILE: 46. Above & Beyond - Walter White.flac
  Size: 6155346 Hash: BE7B8734CD7D7C9A36CDAC8E22084D2D Accuracy: -m0
  Conclusion: CDDA 100%
  Signature: 6E06AE4C786953FC1F190A8B590631CAA12CC7B0
FILE: 45. Emma Hewitt - Rewind (Mikkas Remix).flac
  Size: 6246626 Hash: 7706E3A6527B897DF016FADD079CE593 Accuracy: -m0
  Conclusion: CDDA 100%
  Signature: 27BE5E5F6DF3A3050BF272FA280D88103F4908E6
FILE: 44. Cosmic Gate - So Get Up.flac
  Size: 4364006 Hash: B390ED9197428684DF004A2E18D12E54 Accuracy: -m0
  Conclusion: CDDA 100%
  Signature: A30AB9E416DB6184D24F29C4EE46FC348AF59438
FILE: 43. Heatbeat - Game Over.flac
  Size: 7922600 Hash: D7E19EDCF79D5A0129AEF732D20448D7 Accuracy: -m0
  Conclusion: CDDA 100%
  Signature: D7EEEA567A2EFA9E778CFB853B118BBEEA845F69
FILE: 42. Alex M.O.R.P.H. feat. Natalie Gioia - Dreams.flac
  Size: 12420536 Hash: B704A9F873BBD3DAE07089EC9C32C03C Accuracy: -m0
  Conclusion: CDDA 99%
  Signature: 0B1654D5A7047FF498353EA922EE44A898DEB1FB
FILE: 41. Shogun feat. Tania Zygar - Find Me.flac
  Size: 8684290 Hash: 3CF03D2B1F198BE5F2BC65C60D454417 Accuracy: -m0
  Conclusion: CDDA 100%
  Signature: D9A0E55A780956C38476C88D03FFEAA0A8043DAC
FILE: 40. Arisen Flame - Gladius.flac
  Size: 8444001 Hash: CA9347ACA6290A376F16FB876398F520 Accuracy: -m0
  Conclusion: CDDA 100%
  Signature: DE830A6828B0399FF79C785AA59542FC82B68BCD
FILE: 39. Conjure One feat. Aruna - Still Holding On (Arisen Flame Remix).flac
  Size: 16011240 Hash: 0594672C4626AFBF750D5C5006051CB9 Accuracy: -m0
  Conclusion: CDDA 100%
  Signature: D50F1688842C3E51B10875BA1FF04088EEE41E9E
FILE: 38. Andy Moor & Betsie Larkin - Love Again (Andrew Rayel Remix).flac
  Size: 13648176 Hash: 6858456B0656BB541FC69ED9C1C10B58 Accuracy: -m0
  Conclusion: CDDA 100%
  Signature: 3B3572DE6730C03C3C2254A4AABE3660FA58A5E7
FILE: 37. Estiva - Dinodrums.flac
  Size: 4260932 Hash: E459E7F78E85BBF0212531A28CB1F3FF Accuracy: -m0
  Conclusion: CDDA 100%
  Signature: BA37EC820E6C39D887FCC944512E1F4D930C0850
FILE: 36. Armin van Buuren feat. Laura Jansen - Sound Of The Drums.flac
  Size: 3763066 Hash: 4F226ADD9856EED7C60124CB7D52ED80 Accuracy: -m0
  Conclusion: CDDA 100%
  Signature: FEB9389551E4C954B4979DBF86AF354CA327B456
FILE: 35. Armin van Buuren feat. Trevor Guthrie - This Is What It Feels Like (W&W Remix).flac
  Size: 11436272 Hash: 40906C474104E17A415BAE3F6B3D95D3 Accuracy: -m0
  Conclusion: CDDA 100%
  Signature: 305E4BC441125067999F40D55706154CA4F58FB4
FILE: 34. Armin van Buuren feat. Cindy Alma - Beautiful Life (Protoculture Remix).flac
  Size: 6799496 Hash: A3A10766226E9AA896B8B7AA10612212 Accuracy: -m0
  Conclusion: CDDA 100%
  Signature: EA6C3B4CDF72069A5FD0729AF2C9C688B7A81255
FILE: 33. Armin van Buuren & W&W - D# Fat.flac
  Size: 13800272 Hash: BC0759BCD56D747BE313BBB137482C6B Accuracy: -m0
  Conclusion: CDDA 100%
  Signature: D2A23EF5425A8B58C96E5FE9B4FBF97842AF6F41
FILE: 32. Mark Knight & D. Ramirez V Underworld - Downpipe (Armin van Buuren Remix).flac
  Size: 8552694 Hash: 6AA87AC1669FFDCF3F0D0EA4F3AA666B Accuracy: -m0
  Conclusion: CDDA 100%
  Signature: CE4655E9E24FF1B7210C3F8CE6B22C4487200FA6
FILE: 31. BT & Aqualung - Surrounded (Super8 & Tab Remix).flac
  Size: 9533031 Hash: C5F4960171A9F67DC6958B878A09776A Accuracy: -m0
  Conclusion: CDDA 100%
  Signature: A16C6C6EB5C0B20F2CA7A24F36B73AA6D0FD0EB1
FILE: 30. Armin van Buuren feat. Richard Bedford - Love Never Came.flac
  Size: 8392948 Hash: DCF5090B752EE8EE0E582B027B987E2C Accuracy: -m0
  Conclusion: CDDA 100%
  Signature: 231A3F4BBAE2CBCE0215F981E570274DCF0ABF21
FILE: 29. Super8 & Tab - L.A..flac
  Size: 8706015 Hash: 2C9CE0F0118E3D478BB50034840AF25D Accuracy: -m0
  Conclusion: CDDA 100%
  Signature: D71468DEE182D4228EE987883510053C0D41D976
FILE: 28. Armin van Buuren vs Arty - Nehalennia.flac
  Size: 10343806 Hash: C091D492C007B0D823F24A2BC79E432B Accuracy: -m0
  Conclusion: CDDA 100%
  Signature: 09F3EF127A4AFB0C2482E9A6E4520D1291AB7A34
FILE: 27. Bobina with Ana Criado - For Who I Am (Beat Service Remix).flac
  Size: 15806976 Hash: 9C7D75C4E9EA0CBFF39778C1F98D53CA Accuracy: -m0
  Conclusion: CDDA 100%
  Signature: 3D3988A32E639FDF22E142DF5F22DC75BB9AE9EF
FILE: 26. Kat Krazy feat. elkka - Siren (Armin van Buuren Remix).flac
  Size: 6274535 Hash: 3644F9D498E8E99EDE9E3698AD03CFE2 Accuracy: -m0
  Conclusion: CDDA 100%
  Signature: 3216511458392291ED846E59803665D1857B4F99
FILE: 25. Johan de Kock & Stefan Viljoen feat. Nanje Nowack - Silence (Tommy Johnson Remix).flac
  Size: 18782834 Hash: 6302ED0972CD2F1D71662037352B265B Accuracy: -m0
  Conclusion: MPEG 95%
  Signature: 1534EF13FD8791E79DAF93684A3416ABCA2CC472
FILE: 24. Ronski Speed feat. Lucy Saunders - Rise Again (Omnia Remix).flac
  Size: 10090822 Hash: A45491088C50582D6969C389443B865B Accuracy: -m0
  Conclusion: CDDA 100%
  Signature: 790FBAAC8ECCD50C09CB374170849E69A7BAFD8C
FILE: 23. Lange feat. Ilseviolin - Violin's Revenge (Dark Club Mix).flac
  Size: 5909906 Hash: C37BCEA29A138C94C29090702ABA2482 Accuracy: -m0
  Conclusion: CDDA 100%
  Signature: 577C27B07B6C8E35A7B35C3B38BB673551DD24CC
FILE: 22. Ferry Corsten feat. Jenny Wahlstrom - Many Ways.flac
  Size: 9055623 Hash: E23CB42B561B5B4E221F15E8DD228A5B Accuracy: -m0
  Conclusion: CDDA 100%
  Signature: 87046641455E13BB06EBD5A0D2531E4E5411081C
FILE: 21. Orjan Nilsen - XIING.flac
  Size: 9703031 Hash: 5D7294DF75D6C9828F5070202011F340 Accuracy: -m0
  Conclusion: CDDA 100%
  Signature: DA68286AE0499155FA37FBED5302F2906187A494
FILE: 20. Mark Sixma - Requiem.flac
  Size: 6308069 Hash: F68198AF485B493BE8BCA735D431CCFB Accuracy: -m0
  Conclusion: CDDA 100%
  Signature: D466B75647E42BF901DDD23EA917444DDECFC538
FILE: 19. W&W & Ummet Ozcan - The Code.flac
  Size: 2186381 Hash: 6BDD30E007C497CD7DAC81BF714FEC12 Accuracy: -m0
  Conclusion: CDDA 100%
  Signature: 15BC2FF38C3C26CE9024A6CB70AA72B8B11BEBF3
FILE: 18. W&W - Thunder.flac
  Size: 4410345 Hash: A991B230E4BEAC7807EE0102E47B3DDC Accuracy: -m0
  Conclusion: CDDA 100%
  Signature: 8A62AE1687FAE329E4EB00CCAE1E0D5D1B4404DB
FILE: 17. Orjan Nilsen - Violetta.flac
  Size: 8548745 Hash: 167CE6DF65602A12188193E10BF69DC0 Accuracy: -m0
  Conclusion: CDDA 100%
  Signature: 50B5C8477616C631640103553C350693628CF0DE
FILE: 16. Omnia - Immersion.flac
  Size: 8525350 Hash: 90E2C5B553192D3AE6CEA872BEAE70B5 Accuracy: -m0
  Conclusion: CDDA 100%
  Signature: B4E5B0BCBE2122516CE817BB33FBF2580C2A5E6F
FILE: 15. Audien - Wayfare.flac
  Size: 6351340 Hash: 47A662943DF04F2C98DD0917DF14BF76 Accuracy: -m0
  Conclusion: MPEG 79%
  Signature: 00CD19548B36C29E53B9D49EB5D174F6084E13A3
FILE: 14. Above & Beyond feat. Zoe Johnston - Alchemy (Above & Beyond Club Mix).flac
  Size: 9673283 Hash: 9B2B99C11714AE7DEA8B8BD61AAA06F3 Accuracy: -m0
  Conclusion: CDDA 100%
  Signature: F6BD2A7896D1A945B4D4F4F58ED46196B1EF54E3
FILE: 13. Armin van Buuren feat. Emma Hewitt - Forever Is Ours.flac
  Size: 9968052 Hash: 1D20057DD2621C2F2D06798DD4168C3D Accuracy: -m0
  Conclusion: CDDA 100%
  Signature: 905A5600B0A7E04EEA72196B61E1BAAFEBEC11AB
FILE: 12. Hardwell feat. Amba Shepherd - Apollo (Dash Berlin 4AM Remix).flac
  Size: 5994758 Hash: 70ADB4E92E78B46C3BC08F2371DD877B Accuracy: -m0
  Conclusion: CDDA 100%
  Signature: F68FE5DB38BDE733A80C813B8C6BC44B1701E0D9
FILE: 11. Dash Berlin & Alexander Popov feat. Jonathan Mendelsohn - Steal You Away (Club Mix).flac
  Size: 7862955 Hash: 2FB4C66DE39EE336CF05B6D011550037 Accuracy: -m0
  Conclusion: CDDA 100%
  Signature: 44B359770C16558D36F021A0E5856897D34F1E1A
FILE: 10. Denis Kenzo feat. Sveta B - Lullaby Lonely (Progressive Mix).flac
  Size: 4885220 Hash: 3B2AB992BF8123884BCA8AA409FC9697 Accuracy: -m0
  Conclusion: CDDA 100%
  Signature: 532254738DE9ED686E38369AE1CE3EC0C6A69E2D
FILE: 09. Band Of Horses - The Funeral (Dash Berlin Remix).flac
  Size: 12837139 Hash: D5DC853BEFE9D06F84664F4097488808 Accuracy: -m0
  Conclusion: CDDA 100%
  Signature: 4FE9BB29496B37FE3E90DC7AFD493A36F79C8261
FILE: 08. Christian Burns, Paul Oakenfold & JES - As We Collide (Orjan Nilsen Remix).flac
  Size: 3924549 Hash: 705F183AC43F2C245789C21030360655 Accuracy: -m0
  Conclusion: CDDA 100%
  Signature: 19F2C4E78BF695D84A964D9C5909A46FB4B895A3
FILE: 07. Omnia feat. Everything By Electricity - Bones.flac
  Size: 6518302 Hash: 3E3074EBAA5ED1CF861ABA6EF17823E3 Accuracy: -m0
  Conclusion: CDDA 100%
  Signature: 18BCE5CD6D34BC80344067FB656ED241707D42D4
FILE: 06. Andy Duguid feat. Jaren - 7even.flac
  Size: 6276589 Hash: 55652511A7EAAE1AE69F288A305C3A32 Accuracy: -m0
  Conclusion: CDDA 99%
  Signature: 1F05FA11B24C0DD18E22E0C3258B3B52BF728A36
FILE: 05. BT - Skylarking.flac
  Size: 10253344 Hash: FBFDE86B431B23DC9D98067AC2DCE0AE Accuracy: -m0
  Conclusion: CDDA 100%
  Signature: F65AE810E424D5E790B217D20CE73520DED9BEEF
FILE: 04. Headstrong feat. Stine Grove - Satellite (Aurosonic Progressive Mix).flac
  Size: 8165812 Hash: 04C54A53DE5432E8B1DADDF815940300 Accuracy: -m0
  Conclusion: CDDA 100%
  Signature: 52674FBDCFE06164E82BDE537DE58E87FA6153D7
FILE: 03. Ilan Bluestone - Sinai.flac
  Size: 6259353 Hash: 5DB7384237279FE96FB4D2B9B806574E Accuracy: -m0
  Conclusion: CDDA 100%
  Signature: 7C743C9A3416615ED5BB98B0B6D1C437184090C4
FILE: 02. Omnia - The Light.flac
  Size: 10614944 Hash: 6DB8D1B51E6FB3024A0E238FBF1FD856 Accuracy: -m0
  Conclusion: CDDA 100%
  Signature: 709D6F365DFBA1CF6436FC6A61852A5CEBCD6266
FILE: 01. Intro - The Oath.flac
  Size: 10494936 Hash: 7E17BFB49F8A1911CB536FDA5F3988B8 Accuracy: -m0
  Conclusion: CDDA 100%
  Signature: 1876FFAD59F15295C6030264C1FE890093569F85


Трек лист:
01. Markus Schulz - Remember This (1:12)
02. Skytech - The Other Side (1:25)
03. Max Graham - The Evil ID (0:42)
04. Bobina with Andrew Rayel - Sacramentum (Andrew Rayel Aether Mix) (1:25)
05. Andrew Rayel - Musa (1:25)
06. RAM - Grotesque (Alex M.O.R.P.H. and RAM Original Mix) (1:32)
07. Alex M.O.R.P.H. feat. Sylvia Tosun - An Angel's Love (Andrew Rayel Aether Remix) (1:25)
08. Woody van Eyden - Nangulan (0:56)
09. Andrew Rayel - Dark Warrior (0:56)
10. Armin van Buuren & Markus Schulz - The Expedition (A State Of Trance 600 Anthem) (1:11)
11. Armin van Buuren feat. Miri Ben-Ari - Intense (0:56)
12. Solarstone - Love Theme From Blade Runner (Pure Mix) (1:38)
13. Orjan Nilsen - Mafioso (Mark Sixma Remix) (0:28)
14. MaRLo - Visions (0:56)
15. Arisen Flame - Unity (0:56)
16. Jorn van Deynhoven - Six Zero Zero (0:42)
17. Andrew Rayel - Zeus (0:56)
18. Simon Patterson feat. Lucy Pullin - The One (1:39)
19. MaRLo - BOOM (1:52)
20. Fisherman & Hawkins - Apache (1:12)
21. Ferry Corsten - F The Bull$h1t (0:56)
22. Antony Waldhorn - Theatrum (0:42)
23. Driftmoon & Andy Blueman feat. Dsharp - Exodus (1:38)
24. Alexander Popov - Lost Language (0:56)
25. Solarstone & Clare Stagg - Jewel (Pure Mix) (1:40)
26. Craig Connelly & Christina Novelli - Black Hole (Jorn van Deynhoven Remix) (2:19)
27. Abstract Vision & Elite Electronic - Conqueror (1:23)
28. Matt Bukovski vs Andy Elliass & Abys - Cheops (1:23)
29. A.R.D.I. - Beyond The Time (1:23)
30. Aly & Fila and Susana - Without You (2:05)
31. RAM & Susana - RAMelia (Tribute To Amelia) (2:19)
32. The Thrillseekers feat. Stine Grove - Anywhere With You (Solarstone Pure Mix) (1:44)
33. Bjorn Akesson - Gunsmoke (0:55)
34. Sergey Nevone & Simon O'Shine - Apprehension (Aly & Fila Mix) (1:39)
35. Armin van Buuren - Who's Afraid Of 138?! (Photographer Remix) (1:09)
36. Adam Ellis - Napalm Poet (1:09)
37. Aly & Fila feat. Sue McLaren - Mysteries Unfold (Uplifting Mix) (1:09)
38. Simon Patterson - Brush Strokes (1:09)
39. Dart Rayne & Yura Moonlight and Sarah Lynn - Silhouette (Allen & Envy Remix) (1:58)
40. The Avengers - Yugen (0:55)
41. M.I.K.E. & Fred Baker presents Active Sight - Never Ending (Bryan Kearney Remix) (0:55)
42. Ciro Visone - First Coming (Ian Standerwick Remix) (1:23)
43. ReOrder & Ian Standerwick presents SkyPatrol - Folding Your Universe (0:55)
44. RAM - RAMnesia (1:23)
45. Andain - What It's Like (Sneijder Remix) (1:37)
46. Sneijder & Bryan Kearney - Proper Order (1:22)
47. Outro - A Matter Of What You Believe In (0:47)

Продолжительность: 01:00:17
Код:

Exact Audio Copy V1.0 beta 2 from 29. April 2011

EAC extraction logfile from 23. April 2014, 11:06

Armin van Buuren / A State Of Trance Year Mix 2013 (CD2)

Used drive  : HL-DT-STDVDRAM GT20N   Adapter: 2  ID: 0

Read mode               : Secure
Utilize accurate stream : Yes
Defeat audio cache      : Yes
Make use of C2 pointers : No

Read offset correction                      : 667
Overread into Lead-In and Lead-Out          : No
Fill up missing offset samples with silence : Yes
Delete leading and trailing silent blocks   : No
Null samples used in CRC calculations       : Yes
Used interface                              : Installed external ASPI interface
Gap handling                                : Appended to previous track

Used output format              : User Defined Encoder
Selected bitrate                : 896 kBit/s
Quality                         : High
Add ID3 tag                     : Yes
Command line compressor         : C:\Program Files\Exact Audio Copy\Flac\flac.exe
Additional command line options : -V -8 -T "Genre=%genre%" -T "Artist=%artist%" -T "Title=%title%" -T "Album=%albumtitle%" -T "Date=%year%" -T "Tracknumber=%tracknr%" -T "Far_Cry=%comment%" %source%

TOC of the extracted CD

     Track |   Start  |  Length  | Start sector | End sector
    ---------------------------------------------------------
        1  |  0:00.00 |  1:12.36 |         0    |     5435
        2  |  1:12.36 |  1:25.61 |      5436    |    11871
        3  |  2:38.22 |  0:42.74 |     11872    |    15095
        4  |  3:21.21 |  1:25.73 |     15096    |    21543
        5  |  4:47.19 |  1:25.25 |     21544    |    27943
        6  |  6:12.44 |  1:32.33 |     27944    |    34876
        7  |  7:45.02 |  1:25.25 |     34877    |    41276
        8  |  9:10.27 |  0:56.67 |     41277    |    45543
        9  | 10:07.19 |  0:56.67 |     45544    |    49810
       10  | 11:04.11 |  1:11.08 |     49811    |    55143
       11  | 12:15.19 |  0:56.65 |     55144    |    59408
       12  | 13:12.09 |  1:38.29 |     59409    |    66787
       13  | 14:50.38 |  0:28.52 |     66788    |    68939
       14  | 15:19.15 |  0:56.35 |     68940    |    73174
       15  | 16:15.50 |  0:56.36 |     73175    |    77410
       16  | 17:12.11 |  0:42.26 |     77411    |    80586
       17  | 17:54.37 |  0:56.67 |     80587    |    84853
       18  | 18:51.29 |  1:39.41 |     84854    |    92319
       19  | 20:30.70 |  1:52.16 |     92320    |   100735
       20  | 22:23.11 |  1:12.51 |    100736    |   106186
       21  | 23:35.62 |  0:56.36 |    106187    |   110422
       22  | 24:32.23 |  0:42.06 |    110423    |   113578
       23  | 25:14.29 |  1:38.44 |    113579    |   120972
       24  | 26:52.73 |  0:56.04 |    120973    |   125176
       25  | 27:49.02 |  1:40.66 |    125177    |   132742
       26  | 29:29.68 |  2:19.03 |    132743    |   143170
       27  | 31:48.71 |  1:23.36 |    143171    |   149431
       28  | 33:12.32 |  1:23.35 |    149432    |   155691
       29  | 34:35.67 |  1:23.36 |    155692    |   161952
       30  | 35:59.28 |  2:05.16 |    161953    |   171343
       31  | 38:04.44 |  2:19.10 |    171344    |   181778
       32  | 40:23.54 |  1:44.26 |    181779    |   189604
       33  | 42:08.05 |  0:55.50 |    189605    |   193779
       34  | 43:03.55 |  1:39.07 |    193780    |   201211
       35  | 44:42.62 |  1:09.42 |    201212    |   206428
       36  | 45:52.29 |  1:09.43 |    206429    |   211646
       37  | 47:01.72 |  1:09.42 |    211647    |   216863
       38  | 48:11.39 |  1:09.42 |    216864    |   222080
       39  | 49:21.06 |  1:58.20 |    222081    |   230950
       40  | 51:19.26 |  0:55.49 |    230951    |   235124
       41  | 52:15.00 |  0:55.48 |    235125    |   239297
       42  | 53:10.48 |  1:23.37 |    239298    |   245559
       43  | 54:34.10 |  0:55.49 |    245560    |   249733
       44  | 55:29.59 |  1:23.35 |    249734    |   255993
       45  | 56:53.19 |  1:37.30 |    255994    |   263298
       46  | 58:30.49 |  1:22.01 |    263299    |   269449
       47  | 59:52.50 |  0:47.24 |    269450    |   272998

Track  1

     Filename D:\Armin van Buuren - A State Of Trance Year Mix 2013 - 2013\CD 2\01. Markus Schulz - Remember This.wav

     Pre-gap length  0:00:02.00

     Peak level 96.6 %
     Extraction speed 1.8 X
     Track quality 100.0 %
     Test CRC 0DBD6E29
     Copy CRC 0DBD6E29
     Accurately ripped (confidence 4)  [98805DB5]  (AR v2)
     Copy OK

Track  2

     Filename D:\Armin van Buuren - A State Of Trance Year Mix 2013 - 2013\CD 2\02. Skytech - The Other Side.wav

     Peak level 96.6 %
     Extraction speed 2.0 X
     Track quality 100.0 %
     Test CRC 257CEB89
     Copy CRC 257CEB89
     Accurately ripped (confidence 4)  [C6559994]  (AR v2)
     Copy OK

Track  3

     Filename D:\Armin van Buuren - A State Of Trance Year Mix 2013 - 2013\CD 2\03. Max Graham - The Evil ID.wav

     Peak level 96.6 %
     Extraction speed 1.5 X
     Track quality 100.0 %
     Test CRC E7CB503A
     Copy CRC E7CB503A
     Accurately ripped (confidence 4)  [B249C88F]  (AR v2)
     Copy OK

Track  4

     Filename D:\Armin van Buuren - A State Of Trance Year Mix 2013 - 2013\CD 2\04. Bobina with Andrew Rayel - Sacramentum (Andrew Rayel Aether Mix).wav

     Peak level 96.6 %
     Extraction speed 1.5 X
     Track quality 99.8 %
     Test CRC EA9FD24B
     Copy CRC EA9FD24B
     Accurately ripped (confidence 4)  [B95FDD0B]  (AR v2)
     Copy OK

Track  5

     Filename D:\Armin van Buuren - A State Of Trance Year Mix 2013 - 2013\CD 2\05. Andrew Rayel - Musa.wav

     Peak level 96.6 %
     Extraction speed 1.6 X
     Track quality 99.8 %
     Test CRC 28D44611
     Copy CRC 28D44611
     Accurately ripped (confidence 4)  [EBAD7630]  (AR v2)
     Copy OK

Track  6

     Filename D:\Armin van Buuren - A State Of Trance Year Mix 2013 - 2013\CD 2\06. RAM - Grotesque (Alex M.O.R.P.H. and RAM Original Mix).wav

     Peak level 96.6 %
     Extraction speed 2.3 X
     Track quality 100.0 %
     Test CRC 17505593
     Copy CRC 17505593
     Accurately ripped (confidence 4)  [37262370]  (AR v2)
     Copy OK

Track  7

     Filename D:\Armin van Buuren - A State Of Trance Year Mix 2013 - 2013\CD 2\07. Alex M.O.R.P.H. feat. Sylvia Tosun - An Angel's Love (Andrew Rayel Aether Remix).wav

     Peak level 96.6 %
     Extraction speed 1.7 X
     Track quality 99.8 %
     Test CRC E2A62B92
     Copy CRC E2A62B92
     Accurately ripped (confidence 4)  [56D965D9]  (AR v2)
     Copy OK

Track  8

     Filename D:\Armin van Buuren - A State Of Trance Year Mix 2013 - 2013\CD 2\08. Woody van Eyden - Nangulan.wav

     Peak level 96.6 %
     Extraction speed 2.0 X
     Track quality 100.0 %
     Test CRC 2053F77B
     Copy CRC 2053F77B
     Accurately ripped (confidence 4)  [FB2E3589]  (AR v2)
     Copy OK

Track  9

     Filename D:\Armin van Buuren - A State Of Trance Year Mix 2013 - 2013\CD 2\09. Andrew Rayel - Dark Warrior.wav

     Peak level 96.6 %
     Extraction speed 2.0 X
     Track quality 100.0 %
     Test CRC C851BB09
     Copy CRC C851BB09
     Accurately ripped (confidence 4)  [B44C8283]  (AR v2)
     Copy OK

Track 10

     Filename D:\Armin van Buuren - A State Of Trance Year Mix 2013 - 2013\CD 2\10. Armin van Buuren & Markus Schulz - The Expedition (A State Of Trance 600 Anthem).wav

     Peak level 96.6 %
     Extraction speed 2.3 X
     Track quality 100.0 %
     Test CRC 26B99798
     Copy CRC 26B99798
     Accurately ripped (confidence 4)  [3CB36EB1]  (AR v2)
     Copy OK

Track 11

     Filename D:\Armin van Buuren - A State Of Trance Year Mix 2013 - 2013\CD 2\11. Armin van Buuren feat. Miri Ben-Ari - Intense.wav

     Peak level 96.6 %
     Extraction speed 2.1 X
     Track quality 100.0 %
     Test CRC 7D94B0FA
     Copy CRC 7D94B0FA
     Accurately ripped (confidence 4)  [0D0FE4F0]  (AR v2)
     Copy OK

Track 12

     Filename D:\Armin van Buuren - A State Of Trance Year Mix 2013 - 2013\CD 2\12. Solarstone - Love Theme From Blade Runner (Pure Mix).wav

     Peak level 96.6 %
     Extraction speed 2.6 X
     Track quality 100.0 %
     Test CRC 048BDF21
     Copy CRC 048BDF21
     Accurately ripped (confidence 4)  [F0551551]  (AR v2)
     Copy OK

Track 13

     Filename D:\Armin van Buuren - A State Of Trance Year Mix 2013 - 2013\CD 2\13. Orjan Nilsen - Mafioso (Mark Sixma Remix).wav

     Peak level 96.6 %
     Extraction speed 1.6 X
     Track quality 100.0 %
     Test CRC 9CE4C1E9
     Copy CRC 9CE4C1E9
     Accurately ripped (confidence 4)  [8B0C2796]  (AR v2)
     Copy OK

Track 14

     Filename D:\Armin van Buuren - A State Of Trance Year Mix 2013 - 2013\CD 2\14. MaRLo - Visions.wav

     Peak level 96.6 %
     Extraction speed 2.2 X
     Track quality 100.0 %
     Test CRC C39B2E8F
     Copy CRC C39B2E8F
     Accurately ripped (confidence 4)  [1FD0F70F]  (AR v2)
     Copy OK

Track 15

     Filename D:\Armin van Buuren - A State Of Trance Year Mix 2013 - 2013\CD 2\15. Arisen Flame - Unity.wav

     Peak level 96.6 %
     Extraction speed 2.2 X
     Track quality 100.0 %
     Test CRC CBD33A17
     Copy CRC CBD33A17
     Accurately ripped (confidence 4)  [3A1C3D8C]  (AR v2)
     Copy OK

Track 16

     Filename D:\Armin van Buuren - A State Of Trance Year Mix 2013 - 2013\CD 2\16. Jorn van Deynhoven - Six Zero Zero.wav

     Peak level 96.6 %
     Extraction speed 1.9 X
     Track quality 100.0 %
     Test CRC 2B9F7F12
     Copy CRC 2B9F7F12
     Accurately ripped (confidence 4)  [672E2D70]  (AR v2)
     Copy OK

Track 17

     Filename D:\Armin van Buuren - A State Of Trance Year Mix 2013 - 2013\CD 2\17. Andrew Rayel - Zeus.wav

     Peak level 96.6 %
     Extraction speed 2.3 X
     Track quality 100.0 %
     Test CRC BFAA4FBF
     Copy CRC BFAA4FBF
     Accurately ripped (confidence 4)  [24A846A6]  (AR v2)
     Copy OK

Track 18

     Filename D:\Armin van Buuren - A State Of Trance Year Mix 2013 - 2013\CD 2\18. Simon Patterson feat. Lucy Pullin - The One.wav

     Peak level 96.6 %
     Extraction speed 2.8 X
     Track quality 100.0 %
     Test CRC 92FCB1FD
     Copy CRC 92FCB1FD
     Accurately ripped (confidence 4)  [2049B758]  (AR v2)
     Copy OK

Track 19

     Filename D:\Armin van Buuren - A State Of Trance Year Mix 2013 - 2013\CD 2\19. MaRLo - BOOM.wav

     Peak level 96.6 %
     Extraction speed 2.4 X
     Track quality 99.9 %
     Test CRC E608B25C
     Copy CRC E608B25C
     Accurately ripped (confidence 4)  [EB3956B6]  (AR v2)
     Copy OK

Track 20

     Filename D:\Armin van Buuren - A State Of Trance Year Mix 2013 - 2013\CD 2\20. Fisherman & Hawkins - Apache.wav

     Peak level 96.6 %
     Extraction speed 1.9 X
     Track quality 99.8 %
     Test CRC F8ED4116
     Copy CRC F8ED4116
     Accurately ripped (confidence 4)  [EE2DB311]  (AR v2)
     Copy OK

Track 21

     Filename D:\Armin van Buuren - A State Of Trance Year Mix 2013 - 2013\CD 2\21. Ferry Corsten - F The Bull$h1t.wav

     Peak level 96.6 %
     Extraction speed 2.5 X
     Track quality 100.0 %
     Test CRC 1A11C49E
     Copy CRC 1A11C49E
     Accurately ripped (confidence 4)  [4CA29529]  (AR v2)
     Copy OK

Track 22

     Filename D:\Armin van Buuren - A State Of Trance Year Mix 2013 - 2013\CD 2\22. Antony Waldhorn - Theatrum.wav

     Peak level 96.6 %
     Extraction speed 2.1 X
     Track quality 100.0 %
     Test CRC CCC6F979
     Copy CRC CCC6F979
     Accurately ripped (confidence 4)  [B8B73898]  (AR v2)
     Copy OK

Track 23

     Filename D:\Armin van Buuren - A State Of Trance Year Mix 2013 - 2013\CD 2\23. Driftmoon & Andy Blueman feat. Dsharp - Exodus.wav

     Peak level 96.6 %
     Extraction speed 2.4 X
     Track quality 99.8 %
     Test CRC 7A51138B
     Copy CRC 7A51138B
     Accurately ripped (confidence 4)  [13BE4FD6]  (AR v2)
     Copy OK

Track 24

     Filename D:\Armin van Buuren - A State Of Trance Year Mix 2013 - 2013\CD 2\24. Alexander Popov - Lost Language.wav

     Peak level 96.6 %
     Extraction speed 2.4 X
     Track quality 100.0 %
     Test CRC D6FEEBA6
     Copy CRC D6FEEBA6
     Accurately ripped (confidence 4)  [D7F54D26]  (AR v2)
     Copy OK

Track 25

     Filename D:\Armin van Buuren - A State Of Trance Year Mix 2013 - 2013\CD 2\25. Solarstone & Clare Stagg - Jewel (Pure Mix).wav

     Peak level 96.6 %
     Extraction speed 2.4 X
     Track quality 99.8 %
     Test CRC AC5A5D62
     Copy CRC AC5A5D62
     Accurately ripped (confidence 4)  [A8DB3F01]  (AR v2)
     Copy OK

Track 26

     Filename D:\Armin van Buuren - A State Of Trance Year Mix 2013 - 2013\CD 2\26. Craig Connelly & Christina Novelli - Black Hole (Jorn van Deynhoven Remix).wav

     Peak level 96.6 %
     Extraction speed 3.4 X
     Track quality 100.0 %
     Test CRC E66A17E1
     Copy CRC E66A17E1
     Accurately ripped (confidence 4)  [C4E9C723]  (AR v2)
     Copy OK

Track 27

     Filename D:\Armin van Buuren - A State Of Trance Year Mix 2013 - 2013\CD 2\27. Abstract Vision & Elite Electronic - Conqueror.wav

     Peak level 96.6 %
     Extraction speed 3.2 X
     Track quality 100.0 %
     Test CRC EFB7BB9B
     Copy CRC EFB7BB9B
     Accurately ripped (confidence 4)  [806CB357]  (AR v2)
     Copy OK

Track 28

     Filename D:\Armin van Buuren - A State Of Trance Year Mix 2013 - 2013\CD 2\28. Matt Bukovski vs Andy Elliass & Abys - Cheops.wav

     Peak level 96.6 %
     Extraction speed 3.1 X
     Track quality 100.0 %
     Test CRC A3EE6D54
     Copy CRC A3EE6D54
     Accurately ripped (confidence 4)  [1208C9CF]  (AR v2)
     Copy OK

Track 29

     Filename D:\Armin van Buuren - A State Of Trance Year Mix 2013 - 2013\CD 2\29. A.R.D.I. - Beyond The Time.wav

     Peak level 96.6 %
     Extraction speed 3.2 X
     Track quality 100.0 %
     Test CRC A4458BAC
     Copy CRC A4458BAC
     Accurately ripped (confidence 4)  [6DAB6630]  (AR v2)
     Copy OK

Track 30

     Filename D:\Armin van Buuren - A State Of Trance Year Mix 2013 - 2013\CD 2\30. Aly & Fila and Susana - Without You.wav

     Peak level 96.6 %
     Extraction speed 3.7 X
     Track quality 100.0 %
     Test CRC DED70A24
     Copy CRC DED70A24
     Accurately ripped (confidence 4)  [06B54A34]  (AR v2)
     Copy OK

Track 31

     Filename D:\Armin van Buuren - A State Of Trance Year Mix 2013 - 2013\CD 2\31. RAM & Susana - RAMelia (Tribute To Amelia).wav

     Peak level 96.6 %
     Extraction speed 3.1 X
     Track quality 99.9 %
     Test CRC 182033DB
     Copy CRC 182033DB
     Accurately ripped (confidence 4)  [3754283E]  (AR v2)
     Copy OK

Track 32

     Filename D:\Armin van Buuren - A State Of Trance Year Mix 2013 - 2013\CD 2\32. The Thrillseekers feat. Stine Grove - Anywhere With You (Solarstone Pure Mix).wav

     Peak level 96.6 %
     Extraction speed 3.6 X
     Track quality 100.0 %
     Test CRC E4F45543
     Copy CRC E4F45543
     Accurately ripped (confidence 4)  [544AF019]  (AR v2)
     Copy OK

Track 33

     Filename D:\Armin van Buuren - A State Of Trance Year Mix 2013 - 2013\CD 2\33. Bjorn Akesson - Gunsmoke.wav

     Peak level 96.6 %
     Extraction speed 2.8 X
     Track quality 100.0 %
     Test CRC F4B0B5EE
     Copy CRC F4B0B5EE
     Accurately ripped (confidence 4)  [5D3E490C]  (AR v2)
     Copy OK

Track 34

     Filename D:\Armin van Buuren - A State Of Trance Year Mix 2013 - 2013\CD 2\34. Sergey Nevone & Simon O'Shine - Apprehension (Aly & Fila Mix).wav

     Peak level 96.6 %
     Extraction speed 3.7 X
     Track quality 100.0 %
     Test CRC 1151E31B
     Copy CRC 1151E31B
     Accurately ripped (confidence 4)  [7FD8509F]  (AR v2)
     Copy OK

Track 35

     Filename D:\Armin van Buuren - A State Of Trance Year Mix 2013 - 2013\CD 2\35. Armin van Buuren - Who's Afraid Of 138! (Photographer Remix).wav

     Peak level 96.6 %
     Extraction speed 3.1 X
     Track quality 100.0 %
     Test CRC 5F68D8BF
     Copy CRC 5F68D8BF
     Accurately ripped (confidence 4)  [DB6E3DB8]  (AR v2)
     Copy OK

Track 36

     Filename D:\Armin van Buuren - A State Of Trance Year Mix 2013 - 2013\CD 2\36. Adam Ellis - Napalm Poet.wav

     Peak level 96.6 %
     Extraction speed 3.1 X
     Track quality 100.0 %
     Test CRC 2B8345C1
     Copy CRC 2B8345C1
     Accurately ripped (confidence 4)  [8A515337]  (AR v2)
     Copy OK

Track 37

     Filename D:\Armin van Buuren - A State Of Trance Year Mix 2013 - 2013\CD 2\37. Aly & Fila feat. Sue McLaren - Mysteries Unfold (Uplifting Mix).wav

     Peak level 96.6 %
     Extraction speed 3.2 X
     Track quality 100.0 %
     Test CRC 903A2774
     Copy CRC 903A2774
     Accurately ripped (confidence 4)  [F8F346A3]  (AR v2)
     Copy OK

Track 38

     Filename D:\Armin van Buuren - A State Of Trance Year Mix 2013 - 2013\CD 2\38. Simon Patterson - Brush Strokes.wav

     Peak level 96.6 %
     Extraction speed 3.1 X
     Track quality 100.0 %
     Test CRC 34D5A9AD
     Copy CRC 34D5A9AD
     Accurately ripped (confidence 4)  [1EFB59CC]  (AR v2)
     Copy OK

Track 39

     Filename D:\Armin van Buuren - A State Of Trance Year Mix 2013 - 2013\CD 2\39. Dart Rayne & Yura Moonlight and Sarah Lynn - Silhouette (Allen & Envy Remix).wav

     Peak level 96.6 %
     Extraction speed 4.1 X
     Track quality 100.0 %
     Test CRC 1BEE1AF9
     Copy CRC 1BEE1AF9
     Accurately ripped (confidence 4)  [5247A1AC]  (AR v2)
     Copy OK

Track 40

     Filename D:\Armin van Buuren - A State Of Trance Year Mix 2013 - 2013\CD 2\40. The Avengers - Yugen.wav

     Peak level 96.6 %
     Extraction speed 3.0 X
     Track quality 100.0 %
     Test CRC 7D2E4E0C
     Copy CRC 7D2E4E0C
     Accurately ripped (confidence 4)  [98CD8EF9]  (AR v2)
     Copy OK

Track 41

     Filename D:\Armin van Buuren - A State Of Trance Year Mix 2013 - 2013\CD 2\41. M.I.K.E. & Fred Baker presents Active Sight - Never Ending (Bryan Kearney Remix).wav

     Peak level 96.6 %
     Extraction speed 3.0 X
     Track quality 100.0 %
     Test CRC AC0517D9
     Copy CRC AC0517D9
     Accurately ripped (confidence 4)  [DB3FDAAE]  (AR v2)
     Copy OK

Track 42

     Filename D:\Armin van Buuren - A State Of Trance Year Mix 2013 - 2013\CD 2\42. Ciro Visone - First Coming (Ian Standerwick Remix).wav

     Peak level 96.6 %
     Extraction speed 3.7 X
     Track quality 100.0 %
     Test CRC 929B1869
     Copy CRC 929B1869
     Accurately ripped (confidence 4)  [EE042D95]  (AR v2)
     Copy OK

Track 43

     Filename D:\Armin van Buuren - A State Of Trance Year Mix 2013 - 2013\CD 2\43. ReOrder & Ian Standerwick presents SkyPatrol - Folding Your Universe.wav

     Peak level 96.6 %
     Extraction speed 3.0 X
     Track quality 100.0 %
     Test CRC 020653F7
     Copy CRC 020653F7
     Accurately ripped (confidence 4)  [BEC9F6FA]  (AR v2)
     Copy OK

Track 44

     Filename D:\Armin van Buuren - A State Of Trance Year Mix 2013 - 2013\CD 2\44. RAM - RAMnesia.wav

     Peak level 96.6 %
     Extraction speed 3.8 X
     Track quality 100.0 %
     Test CRC 57DBA33E
     Copy CRC 57DBA33E
     Accurately ripped (confidence 4)  [E3E74175]  (AR v2)
     Copy OK

Track 45

     Filename D:\Armin van Buuren - A State Of Trance Year Mix 2013 - 2013\CD 2\45. Andain - What It's Like (Sneijder Remix).wav

     Peak level 96.6 %
     Extraction speed 4.0 X
     Track quality 100.0 %
     Test CRC BE33C5DC
     Copy CRC BE33C5DC
     Accurately ripped (confidence 4)  [3D4B4F29]  (AR v2)
     Copy OK

Track 46

     Filename D:\Armin van Buuren - A State Of Trance Year Mix 2013 - 2013\CD 2\46. Sneijder & Bryan Kearney - Proper Order.wav

     Peak level 96.6 %
     Extraction speed 2.8 X
     Track quality 99.8 %
     Test CRC 1CEC94D2
     Copy CRC 1CEC94D2
     Accurately ripped (confidence 4)  [9B4A0C67]  (AR v2)
     Copy OK

Track 47

     Filename D:\Armin van Buuren - A State Of Trance Year Mix 2013 - 2013\CD 2\47. Outro - A Matter Of What You Believe In.wav

     Peak level 96.6 %
     Extraction speed 3.1 X
     Track quality 100.0 %
     Test CRC DB14F0F1
     Copy CRC DB14F0F1
     Accurately ripped (confidence 3)  [05A3E808]  (AR v2)
     Copy OK

All tracks accurately ripped

No errors occurred

End of status report

==== Log checksum 0F5F4BF7C3FEE8C959C35634CF548D098E3EF92AAC0AF289EECC6BD9112C93E9 ====

Код:

-----------------------

DON'T MODIFY THIS FILE

-----------------------

PERFORMER: auCDtect Task Manager, ver. 1.5.1RC6 build 1.5.1.7
Copyright (c) 2008-2010 y-soft. All rights reserved
http://y-soft.org

ANALYZER: auCDtect: CD records authenticity detector, version 0.8.2
Copyright (c) 2004 Oleg Berngardt. All rights reserved.
Copyright (c) 2004 Alexander Djourik. All rights reserved.

FILE: 47. Outro - A Matter Of What You Believe In.flac
  Size: 4898572 Hash: 95725A99AA5311F58C0AA276627FFA1F Accuracy: -m0
  Conclusion: MPEG 95%
  Signature: 3173C8BE079F2C5E4B2859B6ED8D2AE8334DD729
FILE: 46. Sneijder & Bryan Kearney - Proper Order.flac
  Size: 12114477 Hash: 40155F2A2A63AB0D50D3363D1217CFD3 Accuracy: -m0
  Conclusion: CDDA 100%
  Signature: 1DEAB7967E28BE0778065E071BDA90C04EF87BDE
FILE: 45. Andain - What It's Like (Sneijder Remix).flac
  Size: 13665806 Hash: 52700E9C811855B15DD98CD42C6CDE28 Accuracy: -m0
  Conclusion: CDDA 100%
  Signature: F3AADBDAD25D57585C8D1889359A76E4DB44EB4F
FILE: 44. RAM - RAMnesia.flac
  Size: 11925254 Hash: 71BA29D5C8AC2B780BE3A5A93ADBFC18 Accuracy: -m0
  Conclusion: CDDA 100%
  Signature: 93C4F282E8BF9BFDF430726DCAA5AEE0D857E6BC
FILE: 43. ReOrder & Ian Standerwick presents SkyPatrol - Folding Your Universe.flac
  Size: 7990059 Hash: 788482944E998905DED65FAE2DF5C07B Accuracy: -m0
  Conclusion: CDDA 100%
  Signature: 5DBF36EC435B7811B4AE40DA48F4FE895A9E5C5A
FILE: 42. Ciro Visone - First Coming (Ian Standerwick Remix).flac
  Size: 12064173 Hash: CED834DF2DF6A800D66A1190744C8F87 Accuracy: -m0
  Conclusion: CDDA 100%
  Signature: 4F8CAF7239C1359AB1B2BC8B6F43D172462C1A74
FILE: 41. M.I.K.E. & Fred Baker presents Active Sight - Never Ending (Bryan Kearney Remix).flac
  Size: 8007265 Hash: 863544B0956765F7C7C6F7830B984054 Accuracy: -m0
  Conclusion: CDDA 100%
  Signature: B833D70D920C7AB5C8BD4444DDC1E5E4695A0AF4
FILE: 40. The Avengers - Yugen.flac
  Size: 8500264 Hash: 301BBABFB4B54CF2928149804170DC49 Accuracy: -m0
  Conclusion: CDDA 100%
  Signature: DFABC7E6C9D24EE86315749101E8691D0726B42B
FILE: 39. Dart Rayne & Yura Moonlight and Sarah Lynn - Silhouette (Allen & Envy Remix).flac
  Size: 17233479 Hash: 8B5304C8256E5BFCAACB4AD637EEA258 Accuracy: -m0
  Conclusion: CDDA 100%
  Signature: 4CCF5FBE4C03EE3D6832F4B3363558E4DB5F2203
FILE: 38. Simon Patterson - Brush Strokes.flac
  Size: 10474820 Hash: C3AF4113D022DE2B21FC5BA303E4F48E Accuracy: -m0
  Conclusion: CDDA 100%
  Signature: 2FD6662EC2765714E31715FBF1C92955E761EA73
FILE: 37. Aly & Fila feat. Sue McLaren - Mysteries Unfold (Uplifting Mix).flac
  Size: 9662657 Hash: A55AD0DD32A097F9D70ECE8184CF828F Accuracy: -m0
  Conclusion: CDDA 100%
  Signature: 4ACAD6FDAD886053BA60D0E48E25863AC2F9416A
FILE: 36. Adam Ellis - Napalm Poet.flac
  Size: 10284097 Hash: 9D158F32AD4F09F945C06007D278687B Accuracy: -m0
  Conclusion: CDDA 100%
  Signature: B9173C4A6C84DB43F6AFA61848CBFE81CF06138A
FILE: 35. Armin van Buuren - Who's Afraid Of 138! (Photographer Remix).flac
  Size: 10504800 Hash: EA223D0378F0047CCEAED8185CFC0ABB Accuracy: -m0
  Conclusion: CDDA 100%
  Signature: CDF3D9875439788DF20FEEDF04AE8F6AFE072C88
FILE: 34. Sergey Nevone & Simon O'Shine - Apprehension (Aly & Fila Mix).flac
  Size: 14107703 Hash: 7939C493C99AD1E66BEB325948B28BD2 Accuracy: -m0
  Conclusion: CDDA 100%
  Signature: E723DAE6AF483E10828582AA8BF14B270BE439AC
FILE: 33. Bjorn Akesson - Gunsmoke.flac
  Size: 7939964 Hash: BA3A3A1230C318F8AFE3B78351B24B00 Accuracy: -m0
  Conclusion: CDDA 100%
  Signature: 0B7FD00CA91A6AA257E1FFAABF7BDAC66FD7F673
FILE: 32. The Thrillseekers feat. Stine Grove - Anywhere With You (Solarstone Pure Mix).flac
  Size: 14757496 Hash: 8A9815BEFAE937535704EF93D96E56A4 Accuracy: -m0
  Conclusion: CDDA 100%
  Signature: CA58FBF8ACB02465554123AAFECF061930C63AAF
FILE: 31. RAM & Susana - RAMelia (Tribute To Amelia).flac
  Size: 18673464 Hash: 232EA69BE87EE22AC5D89A4595ECFD33 Accuracy: -m0
  Conclusion: CDDA 54%
  Signature: EA9066DA39C2875784C2BE1008D7423E33085B92
FILE: 30. Aly & Fila and Susana - Without You.flac
  Size: 17475554 Hash: DF9A22D72B1AF3517408C895673AF249 Accuracy: -m0
  Conclusion: CDDA 99%
  Signature: EA918CCEAC51D2C0C6BC25DEEC6417A9B671DDE0
FILE: 29. A.R.D.I. - Beyond The Time.flac
  Size: 12516132 Hash: 8BE475D531746C335401A21CBA0D801A Accuracy: -m0
  Conclusion: CDDA 100%
  Signature: 4D20696CAE169DB501FBABD7271D63F737A26276
FILE: 28. Matt Bukovski vs Andy Elliass & Abys - Cheops.flac
  Size: 12032144 Hash: 593B56B28670B9905B877E7F2F7C2084 Accuracy: -m0
  Conclusion: CDDA 100%
  Signature: DE27757E20D74F6188C06A09AFDDABCB15114DCF
FILE: 27. Abstract Vision & Elite Electronic - Conqueror.flac
  Size: 12333124 Hash: 0C3C9376DAEC50B43AB836AAEADAABA2 Accuracy: -m0
  Conclusion: CDDA 100%
  Signature: 086089AEAA9ACE05E9D916AD7A28EB2573CB14CB
FILE: 26. Craig Connelly & Christina Novelli - Black Hole (Jorn van Deynhoven Remix).flac
  Size: 20092394 Hash: 006D43CFAF62592F35721900ED3A0AF5 Accuracy: -m0
  Conclusion: CDDA 100%
  Signature: 95A4118F979240A7D66D4CDB65628C7906DBC4A8
FILE: 25. Solarstone & Clare Stagg - Jewel (Pure Mix).flac
  Size: 13913096 Hash: 2C3888D480BB1E8B7C2ED58BEFB8138A Accuracy: -m0
  Conclusion: CDDA 100%
  Signature: 80A8D882097E4F730BA4C8B886DCFD8A0F053870
FILE: 24. Alexander Popov - Lost Language.flac
  Size: 7769245 Hash: AF1C0DFE62883E3454C22662D8CAC22A Accuracy: -m0
  Conclusion: CDDA 100%
  Signature: 60986FE5078577B28091B625813B1FF0A575372B
FILE: 23. Driftmoon & Andy Blueman feat. Dsharp - Exodus.flac
  Size: 13590844 Hash: 60F04992875B1E7D2B3D389C953ACE10 Accuracy: -m0
  Conclusion: CDDA 100%
  Signature: 685B9148342E2C824BA4C9C75F498C1B53B698DF
FILE: 22. Antony Waldhorn - Theatrum.flac
  Size: 6081650 Hash: BFDC76643C518DA0EE92B9927E9F1855 Accuracy: -m0
  Conclusion: CDDA 100%
  Signature: 7AC49C9A44B788DFF9C107F00FBA6CF1CE1FCD4B
FILE: 21. Ferry Corsten - F The Bull$h1t.flac
  Size: 8056648 Hash: ADDAE26E5E28C554757E8BA63A4D3C78 Accuracy: -m0
  Conclusion: CDDA 100%
  Signature: 21CA9B870312E5346CF08D3607867DA8437E0962
FILE: 20. Fisherman & Hawkins - Apache.flac
  Size: 10786820 Hash: 30B9FF2D83127CCB50799A600808D8DE Accuracy: -m0
  Conclusion: CDDA 100%
  Signature: ECBF4F5BAE4EF098127493FA1623608193B0C7B8
FILE: 19. MaRLo - BOOM.flac
  Size: 15969357 Hash: 04DB47C53FDCA70A35BB1E273BDAE51A Accuracy: -m0
  Conclusion: CDDA 100%
  Signature: D8358877A80DC26D9FE0F55327AB445C61DED69F
FILE: 18. Simon Patterson feat. Lucy Pullin - The One.flac
  Size: 14228116 Hash: 7D62B42DA773EF0AF144D8E3FC86392B Accuracy: -m0
  Conclusion: CDDA 100%
  Signature: 7808A8680E3BA7C48A852DDC5AA6C6F41B43D21A
FILE: 17. Andrew Rayel - Zeus.flac
  Size: 8277148 Hash: 85FC225663F9DF867890BDB5B098245C Accuracy: -m0
  Conclusion: CDDA 100%
  Signature: 0F869DB85A0544FA2FE95FBD5936DC8DC24BAA8A
FILE: 16. Jorn van Deynhoven - Six Zero Zero.flac
  Size: 6277308 Hash: 90D2EA8AF013E25025A549316E21888A Accuracy: -m0
  Conclusion: CDDA 100%
  Signature: 67715DD194149F3EE99A8374F80E5B27962191DC
FILE: 15. Arisen Flame - Unity.flac
  Size: 8255287 Hash: 56168A89AB06C96428BF6D948A134ED4 Accuracy: -m0
  Conclusion: CDDA 100%
  Signature: D4E4F4F604FC373A0BAA52A1E6FDCDD82326BBA9
FILE: 14. MaRLo - Visions.flac
  Size: 8106337 Hash: 45CEE019B28C74A80867A79D8B088B96 Accuracy: -m0
  Conclusion: CDDA 100%
  Signature: F016BC5B4CB8392F058563E2160E9FB50B6D79BE
FILE: 13. Orjan Nilsen - Mafioso (Mark Sixma Remix).flac
  Size: 4265819 Hash: 5D50EED7286A713C9063FD4C5ED03861 Accuracy: -m0
  Conclusion: CDDA 100%
  Signature: 45AFC5B5E7BBEAC8C1DF0D389B98E302637320E3
FILE: 12. Solarstone - Love Theme From Blade Runner (Pure Mix).flac
  Size: 13285528 Hash: CA7B7D55022BB87BA130A2E36349B567 Accuracy: -m0
  Conclusion: CDDA 100%
  Signature: 234323E0011BB6C84178B7372F417413009D7C40
FILE: 11. Armin van Buuren feat. Miri Ben-Ari - Intense.flac
  Size: 8262758 Hash: C1E164AEB023ECA43DBD5F872E29E896 Accuracy: -m0
  Conclusion: CDDA 100%
  Signature: E1838D1A1129D11200532EF5CF976AA7097C2B59
FILE: 10. Armin van Buuren & Markus Schulz - The Expedition (A State Of Trance 600 Anthem).flac
  Size: 10433573 Hash: BA432915B88E6F0D15964611550B155E Accuracy: -m0
  Conclusion: CDDA 100%
  Signature: 55C4E1325E7DF3BF6DB1068D9C391C5B2EF5B4D1
FILE: 09. Andrew Rayel - Dark Warrior.flac
  Size: 8305449 Hash: 8B0F43DB54494F6623C5646AD1E7CC6D Accuracy: -m0
  Conclusion: CDDA 100%
  Signature: C32046636D73150BC930BDA6D5F08F85C1333780
FILE: 08. Woody van Eyden - Nangulan.flac
  Size: 7951525 Hash: F45E831DAABD049B5FADDEFDD3A9DBCC Accuracy: -m0
  Conclusion: CDDA 100%
  Signature: 215FA891A2714E94AADAAE741CE9777B68AFAAAC
FILE: 07. Alex M.O.R.P.H. feat. Sylvia Tosun - An Angel's Love (Andrew Rayel Aether Remix).flac
  Size: 12029549 Hash: 9C1B92FEDBA05EF36B3528409D0916E5 Accuracy: -m0
  Conclusion: CDDA 100%
  Signature: BAFC44F64F7DAF97BEF4F9E214B9912F9894E84D
FILE: 06. RAM - Grotesque (Alex M.O.R.P.H. and RAM Original Mix).flac
  Size: 13216116 Hash: E675E722755154EB952870DF753C585F Accuracy: -m0
  Conclusion: CDDA 100%
  Signature: 0B70ECBE660EEEE8778E0B584656D73A1904C62F
FILE: 05. Andrew Rayel - Musa.flac
  Size: 12175655 Hash: 979127CB1F13D80E4994ED15ACBC7FAA Accuracy: -m0
  Conclusion: CDDA 100%
  Signature: 036A18E096B72321C72364E13D22E3653EE9AFDC
FILE: 04. Bobina with Andrew Rayel - Sacramentum (Andrew Rayel Aether Mix).flac
  Size: 12493647 Hash: D00B8B9BAC50BB34B9AA8A6328485A11 Accuracy: -m0
  Conclusion: CDDA 100%
  Signature: 0B56E8F7B19503C240713FA596BEB1F5AF3F3BF2
FILE: 03. Max Graham - The Evil ID.flac
  Size: 6324127 Hash: D8A7BAF33CDAD3592241A9C41BEC1751 Accuracy: -m0
  Conclusion: CDDA 100%
  Signature: 29EC961D137B43343A5173E64A518AADC3FAF037
FILE: 02. Skytech - The Other Side.flac
  Size: 12635491 Hash: 71F966634E782E658FC82ED352CDC1C1 Accuracy: -m0
  Conclusion: CDDA 100%
  Signature: EFBCD4F53F9BA7976269175A7F9F5C33F429AFC5
FILE: 01. Markus Schulz - Remember This.flac
  Size: 10485470 Hash: 91A40AC34787597D716E8E841EFC2743 Accuracy: -m0
  Conclusion: CDDA 100%
  Signature: 4B1D240A4DBFCA99E6FC49F1D054830862832638

Время раздачи: 24/7
[NNM-Club.me]_VA - A State of Trance Year Mix 2013 (Mixed by Armin van Buuren) (2013).torrent
 Торрент: Платиновая раздача  Зарегистрирован
 
Скачать


Примагнититься
 Зарегистрирован:   25 Апр 2014 18:58:37
 Размер:   1,06 GB  (
 Рейтинг:   4,9 (Голосов: 19)
 Поблагодарили:   69
 Проверка:   Оформление проверено модератором 25 Апр 2014 19:15:50
Как cкачать  ·  Как раздать  ·  Правильно оформить  ·  Поднять ратио!  
Показать сообщения:   
Начать новую тему   Ответить на тему    Торрент-трекер NNM-Club -> Electronic -> Trance (Lossless) Часовой пояс: GMT + 3
Страница 1 из 1