Классический форум-трекер
canvas not supported
Нас вместе: 4 064 965

Байки из склепа / Tales From The Crypt (1989-1996) [серии 01-93 из 93] DVDRip [Антология]


Страницы:   Пред.  1, 2, 3 
 
RSS
Начать новую тему   Ответить на тему    Торрент-трекер NNM-Club -> Классика сериалов и многосерийное Кино до 90-х -> Зарубежная Классика, Сериалы и многосерийные Фильмы
Автор Сообщение
ElektrAа ®
Модератор Видео
Uploader 500+
Стаж: 7 лет 10 мес.
Сообщений: 2765
Ratio: 7844,076
Раздал: 502,3 TB
Поблагодарили: 377942
100%
Откуда: Южная столица
ukraine.gif
Байки из склепа / Tales From The Crypt (1989-1996) DVDRip [Антология]
Год выпуска: 1989-1996
Производство: США
Жанр: Ужасы, Комедия
Перевод: Профессиональный многоголосый закадровый (Позитив-мультимедиа, НТВ, ТВ3) + Авторский одноголосый закадровый (Ю.Немахов)
Субтитры: Отсутствуют

Режиссер: Гилберт Адлер Gilbert Adler
Актеры: Арнольд Шварценеггер, Дэн Эйкройд, Грегг Оллмэн, Патрисия Аркетт, Хэнк Азариа, Бо Бриджес, Стив Бушеми, Дэниел Крэйг, Тим Карри, Марк Дакаскос, Тимоти Далтон, Роджер Долтри, Бенисио дель Торо, Кирк Дуглас, Брэд Дуриф, Гектор Элизондо, Дэннис Фарина, Мигель Феррер, Керри Фокс, Вупи Голдберг, Бобкэт Голдтуэйт, Том Хэнкс, Тери Хэтчер, Айзек Хейз, Мардж Хелгенбергер, Мэриэл Хемингуэй, Боб Хоскинс, Эрни Хадсон, Эдди Иззард, Марго Киддер, Брайан Краузе, Джон Литгоу, Джон Ловитц, Эндрю МакКарти, Дилан МакДермотт, Юэн Макгрегор, Кайл Маклахлен, Мит Лоуф, Деми Мур, Малкольм Макдауэлл, Дональд О`Коннор, Джо Пантолиано, Билл Пэкстон, Брюс Пэйн, Джо Пеши, Брэд Питт, Игги Поп, Джеймс Ремар, Кристофер Рив, Наташа Ричардсон, Дон Риклз, Мими Роджерс, Тим Рот, Джоан Северанс, Мартин Шин, Брук Шилдс, Слэш, Фрэнк Сталлоне, Джеффри Тэмбор, Ричард Томас, Леа Томпсон, Твигги, Вэнити, Стивен Уэбер, Дэвид Уорнер, Джордж Уэндт, Билли Уирт, Трит Уильямс, Рой Броксмит ,Рита Уилсон, Бёрт Янг, Алан Армстронг и Билли Зейн.

Некоторые из актёров (например Маршалл Белл, Ларри Дрейк, Лэнс Хенриксен, Майкл Айронсайд, Стив Кэхэн, Трой Эванс) снимались в сериале по несколько раз, периодически появлялись в новых эпизодах уже в других ролях.

Описание:
«Байки из склепа» — культовый американский телесериал-антология. С 1989 по 1996 год было снято 7 сезонов (общей сложностью 93 эпизода). Первая серия вышла на экраны 10 июня 1989 года, последняя 19 июля 1996 года. Сериал был основан на популярных в 50-е годы одноимённых комиксах. Каждый эпизод дебютировал с титульной заставки (начиная с третьего сезона) под музыку, написанную Дэниелом Эльфманом, камера начинает движение от передней двери дома Хранителя склепа, потом она движется через холл, далее вниз по лестнице в подвал, где живёт Хранитель склепа, он появляется из гроба и произносит: «Байки из склепа» и начинает дико хохотать, картинка темнеет и запускается эпизод. В первых же двух сезонах действие всегда стартовало сразу в подвале.



Продолжительность: 93 x 00:30
Качество видео: DVDRip

Видеокодек: DivX
Битрейт видео: ~2010 kbps
Размер кадра: 640x480
Аудиокодек: AC3, 2.0
Битрейт аудио: 192.00 kbps

Содержание:

Байки из склепа / Tales From The Crypt (1989) DVDRip
Год выпуска: 1989
Производство: США
Жанр: Ужасы, Комедия
Перевод: Профессиональный многоголосый закадровый (Позитив-мультимедиа) + Авторский одноголосый закадровый (Ю.Немахов)
Субтитры: Отсутствуют

Режиссер: Гилберт Адлер Gilbert Adler
Актеры: Эндрю МакКарти, Мэриэл Хемингуэй, Дэвид Хэммингс, Майкл Дж. Фокс, Кайл Маклахлан, Терри Гарр, Бруно Кирби, Малколм Макдауэл, Тим Рот, Джон Гловер, Бо Бриджес, Тони Голдуин, Вупи Голдберг, Джон Райс Дейвис, Джеймс Ремар, Ричард Джордан, Джон Полито, Фэй Грант, Энтони Ла Палья, Кирк Дуглас, Эрик Дуглас, Лэнс Хенриксен, Дэн Айкройд и др.

Описание:
“Байки из склепа” – телесериал, созданный по мотивам комиксов Уильяма М. Гейнса, составленный из более чем полусотни сюжетов, представляющих собой короткие страшно юморные истории, рассказанные от лица симпатичного обитателя склепа, сопровождаемые его едкими, зловонными комментариями. Познакомьтесь с некоторыми из историй хищно хмыкнув и зловеще улыбнувшись. Помните – смех продлевает жизнь, а постоянный страх сделает вас бессмертным.



Продолжительность: 6 x 00:30
Качество видео: DVDRip

Видеокодек: DivX
Битрейт видео: ~2010 kbps
Размер кадра: 640x480

Аудио 1: Русский AC3 Dolby Digital, 2/0 (L,R) ch, 192.00 kbps | Позитив-мультимедиа
Аудио 2: Русский AC3 Dolby Digital, 2/0 (L,R) ch, 192.00 kbps | Ю.Немахов
Аудио 3: Английский AC3 Dolby Digital, 2/0 (L,R) ch, 192.00 kbps
General
Complete name : E:\Байки из склепа\Tales From the Crypt\1 - Season\01 - The Man Who Was Death.avi
Format : AVI
Format/Info : Audio Video Interleave
File size : 517 MiB
Duration : 27mn 45s
Overall bit rate : 2 602 Kbps
Writing application : VirtualDubModRus 1.5.10.2 (build 2542/release)
Writing library : VirtualDubMod build 2542/release

Video
ID : 0
Format : MPEG-4 Visual
Format profile : Advanced Simple@L5
Format settings, BVOP : Yes
Format settings, QPel : No
Format settings, GMC : No warppoints
Format settings, Matrix : Default (H.263)
Codec ID : DX50
Codec ID/Hint : DivX 5
Duration : 27mn 45s
Bit rate : 2 007 Kbps
Width : 640 pixels
Height : 480 pixels
Display aspect ratio : 4:3
Frame rate : 23.976 fps
Resolution : 8 bits
Colorimetry : 4:2:0
Scan type : Progressive
Bits/(Pixel*Frame) : 0.272
Stream size : 398 MiB (77%)
Writing library : XviD 1.2.1 (UTC 2008-12-04)

Audio #1
ID : 1
Format : AC-3
Format/Info : Audio Coding 3
Codec ID : 2000
Duration : 27mn 45s
Bit rate mode : Constant
Bit rate : 192 Kbps
Channel(s) : 2 channels
Channel positions : L R
Sampling rate : 48.0 KHz
Stream size : 38.1 MiB (7%)
Alignment : Split accross interleaves
Interleave, duration : 42 ms (1.00 video frame)
Interleave, preload duration : 500 ms

Audio #2
ID : 2
Format : AC-3
Format/Info : Audio Coding 3
Codec ID : 2000
Duration : 27mn 45s
Bit rate mode : Constant
Bit rate : 192 Kbps
Channel(s) : 2 channels
Channel positions : L R
Sampling rate : 48.0 KHz
Stream size : 38.1 MiB (7%)
Alignment : Split accross interleaves
Interleave, duration : 42 ms (1.00 video frame)
Interleave, preload duration : 500 ms

Audio #3
ID : 3
Format : AC-3
Format/Info : Audio Coding 3
Codec ID : 2000
Duration : 27mn 45s
Bit rate mode : Constant
Bit rate : 192 Kbps
Channel(s) : 2 channels
Channel positions : L R
Sampling rate : 48.0 KHz
Stream size : 38.1 MiB (7%)
Alignment : Split accross interleaves
Interleave, duration : 42 ms (1.00 video frame)
Interleave, preload duration : 500 ms

Скриншоты:


Байки из склепа / Tales From The Crypt (1990) DVDRip
Год выпуска: 1990
Производство: США
Жанр: Ужасы, Комедия
Перевод: Профессиональный многоголосый закадровый (ТВ3) + Авторский одноголосый закадровый (Ю.Немахов)
Субтитры: Отсутствуют

Режиссер: Гилберт Адлер Gilbert Adler
Актеры: Эндрю МакКарти, Мэриэл Хемингуэй, Дэвид Хэммингс, Майкл Дж. Фокс, Кайл Маклахлан, Терри Гарр, Бруно Кирби, Малколм Макдауэл, Тим Рот, Джон Гловер, Бо Бриджес, Тони Голдуин, Вупи Голдберг, Джон Райс Дейвис, Джеймс Ремар, Ричард Джордан, Джон Полито, Фэй Грант, Энтони Ла Палья, Кирк Дуглас, Эрик Дуглас, Лэнс Хенриксен, Дэн Айкройд и др.

Описание:
“Байки из склепа” – телесериал, созданный по мотивам комиксов Уильяма М. Гейнса, составленный из более чем полусотни сюжетов, представляющих собой короткие страшно юморные истории, рассказанные от лица симпатичного обитателя склепа, сопровождаемые его едкими, зловонными комментариями. Познакомьтесь с некоторыми из историй хищно хмыкнув и зловеще улыбнувшись. Помните – смех продлевает жизнь, а постоянный страх сделает вас бессмертным.



Продолжительность: 18 x 00:30
Качество видео: DVDRip

Видеокодек: DivX
Битрейт видео: ~2010 kbps
Размер кадра: 640x480

Аудио 1: Русский AC3 Dolby Digital, 2/0 (L,R) ch, 192.00 kbps | ТВ3
Аудио 2: Русский AC3 Dolby Digital, 2/0 (L,R) ch, 192.00 kbps | Ю.Немахов
Аудио 3: Английский AC3 Dolby Digital, 2/0 (L,R) ch, 192.00 kbps
General
Complete name : E:\Байки из склепа\Tales From the Crypt 2\2 - Season\02 - The Switch.avi
Format : AVI
Format/Info : Audio Video Interleave
File size : 503 MiB
Duration : 27mn 2s
Overall bit rate : 2 602 Kbps
Writing application : VirtualDubModRus 1.5.10.2 (build 2542/release)
Writing library : VirtualDubMod build 2542/release

Video
ID : 0
Format : MPEG-4 Visual
Format profile : Advanced Simple@L5
Format settings, BVOP : Yes
Format settings, QPel : No
Format settings, GMC : No warppoints
Format settings, Matrix : Default (H.263)
Codec ID : DX50
Codec ID/Hint : DivX 5
Duration : 27mn 2s
Bit rate : 2 007 Kbps
Width : 640 pixels
Height : 480 pixels
Display aspect ratio : 4:3
Frame rate : 23.976 fps
Resolution : 8 bits
Colorimetry : 4:2:0
Scan type : Progressive
Bits/(Pixel*Frame) : 0.272
Stream size : 388 MiB (77%)
Writing library : XviD 1.2.1 (UTC 2008-12-04)

Audio #1
ID : 1
Format : AC-3
Format/Info : Audio Coding 3
Codec ID : 2000
Duration : 27mn 2s
Bit rate mode : Constant
Bit rate : 192 Kbps
Channel(s) : 2 channels
Channel positions : L R
Sampling rate : 48.0 KHz
Stream size : 37.1 MiB (7%)
Alignment : Split accross interleaves
Interleave, duration : 42 ms (1.00 video frame)
Interleave, preload duration : 500 ms

Audio #2
ID : 2
Format : AC-3
Format/Info : Audio Coding 3
Codec ID : 2000
Duration : 27mn 2s
Bit rate mode : Constant
Bit rate : 192 Kbps
Channel(s) : 2 channels
Channel positions : L R
Sampling rate : 48.0 KHz
Stream size : 37.1 MiB (7%)
Alignment : Split accross interleaves
Interleave, duration : 42 ms (1.00 video frame)
Interleave, preload duration : 500 ms

Audio #3
ID : 3
Format : AC-3
Format/Info : Audio Coding 3
Format profile : Dolby Digital
Codec ID : 2000
Duration : 27mn 2s
Bit rate mode : Constant
Bit rate : 192 Kbps
Channel(s) : 2 channels
Channel positions : L R
Sampling rate : 48.0 KHz
Stream size : 37.1 MiB (7%)
Alignment : Split accross interleaves
Interleave, duration : 42 ms (1.00 video frame)
Interleave, preload duration : 500 ms

Скриншоты:


Байки из склепа / Tales From The Crypt (1991) DVDRip
Год выпуска: 1991
Производство: США
Жанр: Ужасы, Комедия
Перевод: Профессиональный многоголосый закадровый (НТВ) + Авторский одноголосый закадровый (Ю.Немахов)
Субтитры: Отсутствуют

Режиссер: Гилберт Адлер Gilbert Adler
Актеры: Эндрю МакКарти, Мэриэл Хемингуэй, Дэвид Хэммингс, Майкл Дж. Фокс, Кайл Маклахлан, Терри Гарр, Бруно Кирби, Малколм Макдауэл, Тим Рот, Джон Гловер, Бо Бриджес, Тони Голдуин, Вупи Голдберг, Джон Райс Дейвис, Джеймс Ремар, Ричард Джордан, Джон Полито, Фэй Грант, Энтони Ла Палья, Кирк Дуглас, Эрик Дуглас, Лэнс Хенриксен, Дэн Айкройд и др.

Описание:
“Байки из склепа” – телесериал, созданный по мотивам комиксов Уильяма М. Гейнса, составленный из более чем полусотни сюжетов, представляющих собой короткие страшно юморные истории, рассказанные от лица симпатичного обитателя склепа, сопровождаемые его едкими, зловонными комментариями. Познакомьтесь с некоторыми из историй хищно хмыкнув и зловеще улыбнувшись. Помните – смех продлевает жизнь, а постоянный страх сделает вас бессмертным.



Продолжительность: 14 x 00:30
Качество видео: DVDRip

Видеокодек: DivX
Битрейт видео: ~2 000 kbps
Размер кадра: 640x480

Аудио 1: Русский AC3 Dolby Digital, 2/0 (L,R) ch, 192.00 kbps | НТВ
Аудио 2: Русский AC3 Dolby Digital, 2/0 (L,R) ch, 192.00 kbps | Ю.Немахов
Аудио 3: Английский AC3 Dolby Digital, 2/0 (L,R) ch, 192.00 kbps
General
Complete name : E:\Байки из склепа\Tales From the Crypt 3\3 - Season\03 - The Trap.avi
Format : AVI
Format/Info : Audio Video Interleave
File size : 522 MiB
Duration : 28mn 8s
Overall bit rate : 2 595 Kbps
Writing application : VirtualDubModRus 1.5.10.2 (build 2542/release)
Writing library : VirtualDubMod build 2542/release

Video
ID : 0
Format : MPEG-4 Visual
Format profile : Advanced Simple@L5
Format settings, BVOP : Yes
Format settings, QPel : No
Format settings, GMC : No warppoints
Format settings, Matrix : Default (H.263)
Codec ID : DX50
Codec ID/Hint : DivX 5
Duration : 28mn 8s
Bit rate : 2 000 Kbps
Width : 640 pixels
Height : 480 pixels
Display aspect ratio : 4:3
Frame rate : 23.976 fps
Resolution : 8 bits
Colorimetry : 4:2:0
Scan type : Progressive
Bits/(Pixel*Frame) : 0.272
Stream size : 403 MiB (77%)
Writing library : XviD 1.2.1 (UTC 2008-12-04)

Audio #1
ID : 1
Format : AC-3
Format/Info : Audio Coding 3
Codec ID : 2000
Duration : 28mn 7s
Bit rate mode : Constant
Bit rate : 192 Kbps
Channel(s) : 2 channels
Channel positions : L R
Sampling rate : 48.0 KHz
Stream size : 38.6 MiB (7%)
Alignment : Split accross interleaves
Interleave, duration : 42 ms (1.00 video frame)
Interleave, preload duration : 500 ms

Audio #2
ID : 2
Format : AC-3
Format/Info : Audio Coding 3
Codec ID : 2000
Duration : 28mn 8s
Bit rate mode : Constant
Bit rate : 192 Kbps
Channel(s) : 2 channels
Channel positions : L R
Sampling rate : 48.0 KHz
Stream size : 38.7 MiB (7%)
Alignment : Split accross interleaves
Interleave, duration : 42 ms (1.00 video frame)
Interleave, preload duration : 500 ms

Audio #3
ID : 3
Format : AC-3
Format/Info : Audio Coding 3
Format profile : Dolby Digital
Codec ID : 2000
Duration : 28mn 8s
Bit rate mode : Constant
Bit rate : 192 Kbps
Channel(s) : 2 channels
Channel positions : L R
Sampling rate : 48.0 KHz
Stream size : 38.7 MiB (7%)
Alignment : Split accross interleaves
Interleave, duration : 42 ms (1.00 video frame)
Interleave, preload duration : 500 ms

Скриншоты:


Байки из склепа / Tales From The Crypt (1992) DVDRip
Год выпуска: 1992
Производство: США
Жанр: Ужасы, Комедия
Перевод: Профессиональный многоголосый закадровый (НТВ) + Авторский одноголосый закадровый (Ю.Немахов)
Субтитры: Отсутствуют

Режиссер: Гилберт Адлер Gilbert Adler
Актеры: Джон Кассир, Рой Броксмит, Мигель Феррер, Ларри Дрэйк, Боб Голдтуэйт, Лэнс Хенриксен, Уильям Сэдлер, Маршалл Р. Тиг, Стив Кэхэн, Трой Эванс и другие

Описание:
“Байки из склепа” – телесериал, созданный по мотивам комиксов Уильяма М. Гейнса, составленный из более чем полусотни сюжетов, представляющих собой короткие страшно юморные истории, рассказанные от лица симпатичного обитателя склепа, сопровождаемые его едкими, зловонными комментариями. Познакомьтесь с некоторыми из историй хищно хмыкнув и зловеще улыбнувшись. Помните – смех продлевает жизнь, а постоянный страх сделает вас бессмертным.



Продолжительность: 14 x 00:30
Качество видео: DVDRip

Видеокодек: DivX
Битрейт видео: ~2 068 kbps
Размер кадра: 640x480

Аудио 1: Русский AC3 Dolby Digital, 2/0 (L,R) ch, 192.00 kbps | НТВ
Аудио 2: Русский AC3 Dolby Digital, 2/0 (L,R) ch, 192.00 kbps | Ю.Немахов
Аудио 3: Английский AC3 Dolby Digital, 2/0 (L,R) ch, 192.00 kbps
General
Complete name : E:\Байки из склепа\Tales From the Crypt 4\4 - Season\04 - Seance.avi
Format : AVI
Format/Info : Audio Video Interleave
File size : 463 MiB
Duration : 24mn 19s
Overall bit rate : 2 663 Kbps
Writing application : VirtualDubModRus 1.5.10.2 (build 2542/release)
Writing library : VirtualDubMod build 2542/release

Video
ID : 0
Format : MPEG-4 Visual
Format profile : Advanced Simple@L5
Format settings, BVOP : Yes
Format settings, QPel : No
Format settings, GMC : No warppoints
Format settings, Matrix : Default (H.263)
Codec ID : DX50
Codec ID/Hint : DivX 5
Duration : 24mn 19s
Bit rate : 2 068 Kbps
Width : 640 pixels
Height : 480 pixels
Display aspect ratio : 4:3
Frame rate : 23.976 fps
Resolution : 8 bits
Colorimetry : 4:2:0
Scan type : Progressive
Bits/(Pixel*Frame) : 0.281
Stream size : 360 MiB (78%)
Writing library : XviD 1.2.1 (UTC 2008-12-04)

Audio #1
ID : 1
Format : AC-3
Format/Info : Audio Coding 3
Codec ID : 2000
Duration : 24mn 19s
Bit rate mode : Constant
Bit rate : 192 Kbps
Channel(s) : 2 channels
Channel positions : L R
Sampling rate : 48.0 KHz
Stream size : 33.4 MiB (7%)
Alignment : Split accross interleaves
Interleave, duration : 42 ms (1.00 video frame)
Interleave, preload duration : 500 ms

Audio #2
ID : 2
Format : AC-3
Format/Info : Audio Coding 3
Codec ID : 2000
Duration : 24mn 19s
Bit rate mode : Constant
Bit rate : 192 Kbps
Channel(s) : 2 channels
Channel positions : L R
Sampling rate : 48.0 KHz
Stream size : 33.4 MiB (7%)
Alignment : Split accross interleaves
Interleave, duration : 42 ms (1.00 video frame)
Interleave, preload duration : 500 ms

Audio #3
ID : 3
Format : AC-3
Format/Info : Audio Coding 3
Format profile : Dolby Digital
Codec ID : 2000
Duration : 24mn 19s
Bit rate mode : Constant
Bit rate : 192 Kbps
Channel(s) : 2 channels
Channel positions : L R
Sampling rate : 48.0 KHz
Stream size : 33.4 MiB (7%)
Alignment : Split accross interleaves
Interleave, duration : 42 ms (1.00 video frame)
Interleave, preload duration : 500 ms

Скриншоты:


Байки из склепа / Tales From The Crypt (1993) DVDRip
Год выпуска: 1993
Производство: США
Жанр: Ужасы, Комедия
Перевод: Профессиональный многоголосый закадровый (НТВ) + Авторский одноголосый закадровый (Ю.Немахов)
Субтитры: Отсутствуют

Режиссер: Гилберт Адлер Gilbert Adler
Актеры: Эндрю МакКарти, Мэриэл Хемингуэй, Дэвид Хэммингс, Майкл Дж. Фокс, Кайл Маклахлан, Терри Гарр, Бруно Кирби, Малколм Макдауэл, Тим Рот, Джон Гловер, Бо Бриджес, Тони Голдуин, Вупи Голдберг, Джон Райс Дейвис, Джеймс Ремар, Ричард Джордан, Джон Полито, Фэй Грант, Энтони Ла Палья, Кирк Дуглас, Эрик Дуглас, Лэнс Хенриксен, Дэн Айкройд и др.

Описание:
“Байки из склепа” – телесериал, созданный по мотивам комиксов Уильяма М. Гейнса, составленный из более чем полусотни сюжетов, представляющих собой короткие страшно юморные истории, рассказанные от лица симпатичного обитателя склепа, сопровождаемые его едкими, зловонными комментариями. Познакомьтесь с некоторыми из историй хищно хмыкнув и зловеще улыбнувшись. Помните – смех продлевает жизнь, а постоянный страх сделает вас бессмертным.



Продолжительность: 13 x 00:30
Качество видео: DVDRip

Видеокодек: DivX
Битрейт видео: ~2 000 kbps
Размер кадра: 640x480

Аудио 1: Русский AC3 Dolby Digital, 2/0 (L,R) ch, 192.00 kbps | НТВ
Аудио 2: Русский AC3 Dolby Digital, 2/0 (L,R) ch, 192.00 kbps | Ю.Немахов
Аудио 3: Английский AC3 Dolby Digital, 2/0 (L,R) ch, 192.00 kbps
General
Complete name : E:\Байки из склепа\Tales From the Crypt 5\5 - Season\05 - People Who Live In Brass Hearses.avi
Format : AVI
Format/Info : Audio Video Interleave
File size : 500 MiB
Duration : 26mn 55s
Overall bit rate : 2 595 Kbps
Writing application : VirtualDubModRus 1.5.10.2 (build 2542/release)
Writing library : VirtualDubMod build 2542/release

Video
ID : 0
Format : MPEG-4 Visual
Format profile : Advanced Simple@L5
Format settings, BVOP : Yes
Format settings, QPel : No
Format settings, GMC : No warppoints
Format settings, Matrix : Default (H.263)
Codec ID : DX50
Codec ID/Hint : DivX 5
Duration : 26mn 55s
Bit rate : 2 000 Kbps
Width : 640 pixels
Height : 480 pixels
Display aspect ratio : 4:3
Frame rate : 23.976 fps
Resolution : 8 bits
Colorimetry : 4:2:0
Scan type : Progressive
Bits/(Pixel*Frame) : 0.272
Stream size : 385 MiB (77%)
Writing library : XviD 1.2.1 (UTC 2008-12-04)

Audio #1
ID : 1
Format : AC-3
Format/Info : Audio Coding 3
Codec ID : 2000
Duration : 26mn 55s
Bit rate mode : Constant
Bit rate : 192 Kbps
Channel(s) : 2 channels
Channel positions : L R
Sampling rate : 48.0 KHz
Stream size : 37.0 MiB (7%)
Alignment : Split accross interleaves
Interleave, duration : 42 ms (1.00 video frame)
Interleave, preload duration : 500 ms

Audio #2
ID : 2
Format : AC-3
Format/Info : Audio Coding 3
Codec ID : 2000
Duration : 26mn 55s
Bit rate mode : Constant
Bit rate : 192 Kbps
Channel(s) : 2 channels
Channel positions : L R
Sampling rate : 48.0 KHz
Stream size : 37.0 MiB (7%)
Alignment : Split accross interleaves
Interleave, duration : 42 ms (1.00 video frame)
Interleave, preload duration : 500 ms

Audio #3
ID : 3
Format : AC-3
Format/Info : Audio Coding 3
Format profile : Dolby Digital
Codec ID : 2000
Duration : 26mn 55s
Bit rate mode : Constant
Bit rate : 192 Kbps
Channel(s) : 2 channels
Channel positions : L R
Sampling rate : 48.0 KHz
Stream size : 37.0 MiB (7%)
Alignment : Split accross interleaves
Interleave, duration : 42 ms (1.00 video frame)
Interleave, preload duration : 500 ms

Скриншоты:


Байки из склепа / Tales From The Crypt (1994) DVDRip
Год выпуска: 1994
Производство: США
Жанр: Ужасы, Комедия
Перевод: Профессиональный многоголосый закадровый (НТВ), Профессиональный двухголосый закадровый
Субтитры: Отсутствуют

Режиссер: Гилберт Адлер Gilbert Adler
Актеры: Джон Кассир, Рой Броксмит, Мигель Феррер, Ларри Дрэйк, Боб Голдтуэйт, Лэнс Хенриксен, Уильям Сэдлер, Маршалл Р. Тиг, Стив Кэхэн, Трой Эванс и другие

Описание:
“Байки из склепа” – телесериал, созданный по мотивам комиксов Уильяма М. Гейнса, составленный из более чем полусотни сюжетов, представляющих собой короткие страшно юморные истории, рассказанные от лица симпатичного обитателя склепа, сопровождаемые его едкими, зловонными комментариями. Познакомьтесь с некоторыми из историй хищно хмыкнув и зловеще улыбнувшись. Помните – смех продлевает жизнь, а постоянный страх сделает вас бессмертным.



Продолжительность: 15 x 00:30
Качество видео: DVDRip

Видеокодек: DivX
Битрейт видео: ~2 000 kbps
Размер кадра: 640x480

Аудио 1: Русский AC3 Dolby Digital, 2/0 (L,R) ch, 192.00 kbps | НТВ
Аудио 2: Русский AC3 Dolby Digital, 2/0 (L,R) ch, 192.00 kbps | DVO
Аудио 3: Английский AC3 Dolby Digital, 2/0 (L,R) ch, 192.00 kbps
General
Complete name : E:\Байки из склепа\Tales From the Crypt 6\6 - Season\06 - The Bribe.avi
Format : AVI
Format/Info : Audio Video Interleave
File size : 446 MiB
Duration : 26mn 0s
Overall bit rate : 2 398 Kbps
Writing application : VirtualDubModRus 1.5.10.2 (build 2542/release)
Writing library : VirtualDubMod build 2542/release

Video
ID : 0
Format : MPEG-4 Visual
Format profile : Advanced Simple@L5
Format settings, BVOP : Yes
Format settings, QPel : No
Format settings, GMC : No warppoints
Format settings, Matrix : Default (H.263)
Codec ID : DX50
Codec ID/Hint : DivX 5
Duration : 26mn 0s
Bit rate : 2 000 Kbps
Width : 640 pixels
Height : 480 pixels
Display aspect ratio : 4:3
Frame rate : 23.976 fps
Resolution : 8 bits
Colorimetry : 4:2:0
Scan type : Progressive
Bits/(Pixel*Frame) : 0.272
Stream size : 372 MiB (83%)
Writing library : XviD 1.2.1 (UTC 2008-12-04)

Audio #1
ID : 1
Format : AC-3
Format/Info : Audio Coding 3
Codec ID : 2000
Duration : 25mn 57s
Bit rate mode : Constant
Bit rate : 192 Kbps
Channel(s) : 2 channels
Channel positions : L R
Sampling rate : 48.0 KHz
Stream size : 35.7 MiB (8%)
Alignment : Split accross interleaves
Interleave, duration : 42 ms (1.00 video frame)
Interleave, preload duration : 500 ms

Audio #2
ID : 2
Format : AC-3
Format/Info : Audio Coding 3
Format profile : Dolby Digital
Codec ID : 2000
Duration : 26mn 0s
Bit rate mode : Constant
Bit rate : 192 Kbps
Channel(s) : 2 channels
Channel positions : L R
Sampling rate : 48.0 KHz
Stream size : 35.7 MiB (8%)
Alignment : Split accross interleaves
Interleave, duration : 42 ms (1.00 video frame)
Interleave, preload duration : 500 ms

Скриншоты:


Байки из склепа / Tales From The Crypt (1996) DVDRip
Год выпуска: 1996
Производство: США
Жанр: Ужасы, Комедия
Перевод: Профессиональный многоголосый закадровый (ТВ3)
Субтитры: Отсутствуют

Режиссер: Гилберт Адлер Gilbert Adler
Актеры: Джон Кассир, Рой Броксмит, Мигель Феррер, Ларри Дрэйк, Боб Голдтуэйт, Лэнс Хенриксен, Уильям Сэдлер, Маршалл Р. Тиг, Стив Кэхэн, Трой Эванс и другие

Описание:
“Байки из склепа” – телесериал, созданный по мотивам комиксов Уильяма М. Гейнса, составленный из более чем полусотни сюжетов, представляющих собой короткие страшно юморные истории, рассказанные от лица симпатичного обитателя склепа, сопровождаемые его едкими, зловонными комментариями. Познакомьтесь с некоторыми из историй хищно хмыкнув и зловеще улыбнувшись. Помните – смех продлевает жизнь, а постоянный страх сделает вас бессмертным.



Продолжительность: 13 x 00:30
Качество видео: DVDRip

Видеокодек: DivX
Битрейт видео: ~2 000 kbps
Размер кадра: 640x480

Аудио 1: Русский AC3 Dolby Digital, 2/0 (L,R) ch, 192.00 kbps | ТВ3
Аудио 3: Английский AC3 Dolby Digital, 2/0 (L,R) ch, 192.00 kbps
General
Complete name : E:\Байки из склепа\Tales From the Crypt 7\7 - Season\07 - The Kidnapper.avi
Format : AVI
Format/Info : Audio Video Interleave
File size : 420 MiB
Duration : 24mn 28s
Overall bit rate : 2 398 Kbps
Writing application : VirtualDubModRus 1.5.10.2 (build 2542/release)
Writing library : VirtualDubMod build 2542/release

Video
ID : 0
Format : MPEG-4 Visual
Format profile : Advanced Simple@L5
Format settings, BVOP : Yes
Format settings, QPel : No
Format settings, GMC : No warppoints
Format settings, Matrix : Default (H.263)
Codec ID : DX50
Codec ID/Hint : DivX 5
Duration : 24mn 28s
Bit rate : 2 000 Kbps
Width : 640 pixels
Height : 480 pixels
Display aspect ratio : 4:3
Frame rate : 23.976 fps
Resolution : 8 bits
Colorimetry : 4:2:0
Scan type : Progressive
Bits/(Pixel*Frame) : 0.272
Stream size : 350 MiB (83%)
Writing library : XviD 1.2.1 (UTC 2008-12-04)

Audio #1
ID : 1
Format : AC-3
Format/Info : Audio Coding 3
Codec ID : 2000
Duration : 24mn 28s
Bit rate mode : Constant
Bit rate : 192 Kbps
Channel(s) : 2 channels
Channel positions : L R
Sampling rate : 48.0 KHz
Stream size : 33.6 MiB (8%)
Alignment : Split accross interleaves
Interleave, duration : 42 ms (1.00 video frame)
Interleave, preload duration : 500 ms

Audio #2
ID : 2
Format : AC-3
Format/Info : Audio Coding 3
Format profile : Dolby Digital
Codec ID : 2000
Duration : 24mn 28s
Bit rate mode : Constant
Bit rate : 192 Kbps
Channel(s) : 2 channels
Channel positions : L R
Sampling rate : 48.0 KHz
Stream size : 33.6 MiB (8%)
Alignment : Split accross interleaves
Interleave, duration : 42 ms (1.00 video frame)
Interleave, preload duration : 500 ms

Скриншоты:


Все релизы Байки из склепа на NNM-CLUB

Время раздачи: 24/7 - круглосуточно
Благодарности, а также конструктивное обсуждение раздачи способствует ее долгожительству и вдохновляет автора на создание новых.
[NNM-Club.me]_Bayki iz sklepa.torrent
 Торрент: Платиновая раздача  Зарегистрирован
 
Скачать


Примагнититься
 Зарегистрирован:   25 Апр 2014 22:47:53
 Размер:   44,4 GB  (
 Рейтинг:   4,8 (Голосов: 252)
 Поблагодарили:   735
 Проверка:   Оформление проверено модератором 26 Апр 2014 09:29:29
Как cкачать  ·  Как раздать  ·  Правильно оформить  ·  Поднять ратио!  

_________________
«Правила оформления релизов в разделе Видео» | После исправлений - в ЛС
walterzedman
Стаж: 6 лет 1 мес.
Сообщений: 7
Ratio: 67,384
100%
lavanda01 писал(а): Перейти к сообщению
Может кто-нибудь знает. Как называется серия, где чувак на улице встречает демона. Демон его отпускает, только говорит никогда про встречу не рассказывать. Этот чувак счастливо живёт, а потом решил всё таки рассказать... Ну кто смотрел, дальше тот поймёт...


Это не отсюда, это "Сказки с темной стороны"
Raminello
Стаж: 4 года 4 мес.
Сообщений: 31
Ratio: 10,843
Раздал: 3,186 TB
Поблагодарили: 4
81.35%
Откуда: БАКУ
azerbaijan.gif
супер сериал детства
ElektrAа ®
Модератор Видео
Uploader 500+
Стаж: 7 лет 10 мес.
Сообщений: 2765
Ratio: 7844,076
Раздал: 502,3 TB
Поблагодарили: 377942
100%
Откуда: Южная столица
ukraine.gif
xxx-man-by писал(а): Перейти к сообщению
Что-то давно забытое, из детства. Спасибо.


Пожалуйста!

_________________
«Правила оформления релизов в разделе Видео» | После исправлений - в ЛС
DurkA045
Стаж: 5 лет 1 мес.
Сообщений: 48
Ratio: 573,94
100%
Откуда: Где-то на глобусе...
pirates.png
В топку все новинки кино, вот чего мне не хватало, спасибо что раздаете.

_________________
i3 2100 3.10 GHz, ASUS P8B75 M-LE, DDR3 4 Gb RAM, Intel HD 2000, WD 1 Tb.
Показать сообщения:   
Начать новую тему   Ответить на тему    Торрент-трекер NNM-Club -> Классика сериалов и многосерийное Кино до 90-х -> Зарубежная Классика, Сериалы и многосерийные Фильмы Часовой пояс: GMT + 3
Страницы:   Пред.  1, 2, 3
Страница 3 из 3