Классический форум-трекер
canvas not supported
Нас вместе: 4 083 485
Платим за отзывы

Рыжий клоун / Gingerclown (2013) WEBRip [H.264]


 
 
RSS
Начать новую тему   Ответить на тему    Торрент-трекер NNM-Club -> Зарубежное кино -> Зарубежные Фильмы (HD*Rip/LQ, DVDRip, SATRip, VHSRip)
Автор Сообщение
BuR-77 ®
Стаж: 7 лет 1 мес.
Сообщений: 238
Ratio: 67,742
Поблагодарили: 15091
100%
ukraine.gif
Рыжий клоун / Gingerclown (2013) WEBRip [H.264]
Год выпуска: 2013
Производство: Венгрия
Жанр: Комедия, Ужасы

Режиссер: Балаш Хатвани
Продюсер: Балаш Хатвани, Левенте Кишш, Кристиан Липперт
Актеры: Эшли Ллойд, Эрин Хэйес, Тим Карри, Лэнс Хенриксен, Майкл Уинслоу, Брэд Дуриф, Шон Янг, Кэннел-Гриффитс Майкл, Андраш Колосар, Джошуа Браунвуд

Описание фильма:
Слывущий неудачником Сэм пытается сделать всё, что привлечь внимание первой красотки школы Дженни. Поэтому он не колеблясь принимает предложение своего одноклассника Биффа отправиться ночью в заброшенный парк развлечений, доказав таким образом своё мужество. Испугавшись за него, Дженни решила последовать за ним, чтобы не оставлять его одного в этом ужасном месте. Так для них начинается ночь, которую они не забудут никогда, потому что парк оказывается прибежищем для пугающих, хотя и несколько эксцентричных монстров, любящих мучить невинных жертв.

Перевод: Двуголосый закадровый, любительский
Озвучка / Автор перевода: DeadSno & den904
Субтитры: отсутствуют



Дата мировой премьеры: 9 мая 2013 года

Продолжительность: 01:22:41
Качество видео: WEBRip (AVC)

Видеокодек: MPEG-4 AVC/H.264
Битрейт видео: ~1051 Кбит/сек
Размер кадра: 720х304
Аудио 1: AC3, 6 каналов, 384 Кбит/сек | DeadSno & den904
Аудио 2: AC3, 6 каналов, 384 Кбит/сек | Английский

Релиз группа:
Общее
Уникальный идентификатор : 232598076969210258253098771990782450860 (0xAEFCC298CF3F9EC9A4778C70356C9CAC)
Полное имя : Gingerclown. (2013) WEBRip.mkv
Формат : Matroska
Версия формата : Version 2
Размер файла : 1,05 Гбайт
Продолжительность : 1 ч. 22 м.
Режим общего битрейта : Переменный
Общий поток : 1820 Кбит/сек
Дата кодирования : UTC 2014-05-05 13:04:50
Программа кодирования : mkvmerge v5.8.0 ('No Sleep / Pillow') built on Sep 2 2012 15:37:04
Библиотека кодирования : libebml v1.2.3 + libmatroska v1.3.0

Видео
Идентификатор : 1
Формат : AVC
Формат/Информация : Advanced Video Codec
Профиль формата : High@L5.1
Параметр CABAC формата : Да
Параметр ReFrames формата : 3 кадра
Идентификатор кодека : V_MPEG4/ISO/AVC
Продолжительность : 1 ч. 22 м.
Вид битрейта : Переменный
Битрейт : 1051 Кбит/сек
Максимальный битрейт : 25,0 Мбит/сек
Ширина : 720 пикселей
Высота : 304 пикселя
Соотношение сторон : 2,35:1
Режим частоты кадров : Постоянный
Частота кадров : 23,976 кадра/сек
Цветовое пространство : YUV
Субдискретизация насыщенности : 4:2:0
Битовая глубина : 8 бит
Тип развёртки : Прогрессивная
Бит/(Пиксели*Кадры) : 0.200
Размер потока : 601 Мбайт (56%)
Библиотека кодирования : x264 core 104 r1683 62997d6
Настройки программы : cabac=1 / ref=3 / deblock=1:0:0 / analyse=0x3:0x133 / me=umh / subme=7 / psy=1 / psy_rd=1.00:0.00 / mixed_ref=1 / me_range=16 / chroma_me=1 / trellis=1 / 8x8dct=1 / cqm=0 / deadzone=21,11 / fast_pskip=1 / chroma_qp_offset=-2 / threads=3 / sliced_threads=0 / nr=0 / decimate=1 / interlaced=0 / constrained_intra=0 / bframes=3 / b_pyramid=0 / b_adapt=1 / b_bias=0 / direct=1 / weightb=1 / open_gop=0 / weightp=2 / keyint=240 / keyint_min=24 / scenecut=40 / intra_refresh=0 / rc_lookahead=40 / rc=2pass / mbtree=1 / bitrate=1051 / ratetol=1.0 / qcomp=0.60 / qpmin=10 / qpmax=51 / qpstep=4 / cplxblur=20.0 / qblur=0.5 / vbv_maxrate=25000 / vbv_bufsize=25000 / ip_ratio=1.40 / aq=1:1.00 / nal_hrd=vbr
Язык : English
Default : Да
Forced : Нет

Аудио #1
Идентификатор : 2
Формат : AC-3
Формат/Информация : Audio Coding 3
Расширение режима : CM (complete main)
Параметр Endianness формата : Big
Идентификатор кодека : A_AC3
Продолжительность : 1 ч. 22 м.
Вид битрейта : Постоянный
Битрейт : 384 Кбит/сек
Каналы : 6 каналов
Расположение каналов : Front: L C R, Side: L R, LFE
Частота : 48,0 КГц
Битовая глубина : 16 бит
Метод сжатия : С потерями
Размер потока : 227 Мбайт (21%)
Заголовок : L1 | DeadSno & den904
Язык : Russian
Default : Да
Forced : Нет

Аудио #2
Идентификатор : 3
Формат : AC-3
Формат/Информация : Audio Coding 3
Расширение режима : CM (complete main)
Параметр Endianness формата : Big
Идентификатор кодека : A_AC3
Продолжительность : 1 ч. 22 м.
Вид битрейта : Постоянный
Битрейт : 384 Кбит/сек
Каналы : 6 каналов
Расположение каналов : Front: L C R, Side: L R, LFE
Частота : 48,0 КГц
Битовая глубина : 16 бит
Метод сжатия : С потерями
Размер потока : 227 Мбайт (21%)
Заголовок : Eng
Язык : English
Default : Нет
Forced : Нет
Скриншоты:


Время раздачи: 24/7
[NNM-Club.me]_Gingerclown. (2013) WEBRip.mkv.torrent
 Торрент: Платиновая раздача  Зарегистрирован
 
Скачать


Примагнититься
 Зарегистрирован:   05 Май 2014 16:59:19
 Размер:   1,05 GB  (
 Рейтинг:   4,5 (Голосов: 46)
 Поблагодарили:   186
 Проверка:   Оформление проверено модератором 05 Май 2014 17:22:51
Как cкачать  ·  Как раздать  ·  Правильно оформить  ·  Поднять ратио!  
Loading...
and7610
Стаж: 8 лет 1 мес.
Сообщений: 910
Ratio: 88,969
Раздал: 16,7 TB
Поблагодарили: 103315
100%
russia.gif
Венгрия :огорчение: , комедия ужасы О нет , после этого даже описание читать не стоит.
FireFox
Стаж: 9 лет 7 мес.
Сообщений: 134
Ratio: 1,125
100%
russia.gif
Вот Вам и ЕС, причем полный, Америка во всем)))
originalss
Стаж: 8 лет 10 мес.
Сообщений: 49
Ratio: 39,861
100%
сейчас скачаю, гляну
ka-yf
Стаж: 9 лет 4 мес.
Сообщений: 11
Ratio: 22,194
0.52%
Такая уета...
ZmeYdoom
Стаж: 6 лет 7 мес.
Сообщений: 117
Ratio: 127,779
100%
ussr.gif
залейте в XviD пожалуйста...
russikmoto
Стаж: 7 лет 2 мес.
Сообщений: 29
Ratio: 5,003
0%
Откуда: Napoli
italy.gif
FireFox писал(а): Перейти к сообщению
Вот Вам и ЕС, причем полный, Америка во всем)))


Ты ерунду несешь, причем тут Америка?
Desperator
Стаж: 9 лет 4 мес.
Сообщений: 163
Ratio: 0,635
Поблагодарили: 30
100%
Третий скрин напоминает жирного вампира из блейда
originalss
Стаж: 8 лет 10 мес.
Сообщений: 49
Ratio: 39,861
100%
ахаха, а собака у них вообще жесткая) в целом для любителей отборного мата на разок подойдет этот фильм
Petravich
Стаж: 9 лет
Сообщений: 55
Ratio: 15,377
100%
Обтесала жизнь в Венгрии, Джабба Хатта...
BuR-77 ®
Стаж: 7 лет 1 мес.
Сообщений: 238
Ratio: 67,742
Поблагодарили: 15091
100%
ukraine.gif
Petravich писал(а): Перейти к сообщению
Обтесала жизнь в Венгрии, Джабба Хатта...


:лол:
Gallucinogenia
Стаж: 10 лет
Сообщений: 69
Ratio: 266,497
100%
russia.gif
Petravich писал(а): Перейти к сообщению
Обтесала жизнь в Венгрии, Джабба Хатта...


Ржу не могу! Я тоже его признал.
трезорыч
Стаж: 7 лет 4 мес.
Сообщений: 2713
Ratio: 74,323
100%
Откуда: Из Интернета
russia.gif
Да какая-то детская сказка-ужастик :D :лол:
BOBAH
Стаж: 6 лет 4 мес.
Сообщений: 22
Ratio: 5,93
0%
ПИШУ редко !!!! :шок: НО :нет: Этот фильм -
- Г А В Н О РЕДКОСТНОЕ !!!! :кругом голова: !Удалил и вам не советую :огорчение: :огорчение: :огорчение:
Nickmsk
Стаж: 9 лет 2 мес.
Сообщений: 107
Ratio: 1,939
15.71%
Откуда: Симферополь
russia.gif
Тоже из всех только Джаббу узнал :смех:
Показать сообщения:   
Начать новую тему   Ответить на тему    Торрент-трекер NNM-Club -> Зарубежное кино -> Зарубежные Фильмы (HD*Rip/LQ, DVDRip, SATRip, VHSRip) Часовой пояс: GMT + 3
Страница 1 из 1