Классический форум-трекер
canvas not supported
Нас вместе: 4 079 172

Стрела / Arrow (2012-2013) HDRip (Сезон 1, Серия 1-23 из 23) [Пятница]


 
 
RSS
Начать новую тему   Ответить на тему    Торрент-трекер NNM-Club -> Зарубежные сериалы
Автор Сообщение
WOLF 80 ®
Uploader 100+
Стаж: 10 лет 2 мес.
Сообщений: 480
Ratio: 3902,785
Раздал: 156,9 TB
Поблагодарили: 30373
100%
Откуда: Санкт-Петербург
russia.gif
Стрела / Arrow (2012-2013) HDRip (Сезон 1, Серия 1-23 из 23) [Пятница]
«His Death Was Just The Beginning»
Год выпуска: 2012-2013
Страна: США
Жанр: Фантастика, боевик, драма, детектив, приключения

Перевод: Профессиональный (Полное дублирование) - Канал Пятница

СЭМПЛ

Режиссер: Дэвид Баррет, Дэвид Наттер
Актеры: Стивен Амелл, Эмили Бетт Рикардс, Кэти Кэссиди, Уилла Холлэнд, Джейми Шеридан, Жаклин МакИннес Вуд, Колин Сэлмон, Кэтлин Гати, Пол Блекторн, Сюзанна Томпсон и др.

Описание:
После спланированного кораблекрушения, плейбой и миллиардер Оливер Куин пропадает и считается погибшим в течение пяти лет. Его обнаруживают живым на затерянном острове в Тихом океане. Когда он возвращается домой в Старлинг-Сити, его мать, сестра и лучший друг видят, что Оливер изменился. В то же время Оливер ищет примирения со своей бывшей подругой Лорел Лэнс. Когда с близкими Оливера что-то приключается, он тайно становится Стрелой, и пытается справляться со злом, борясь с бедами общества, а также пытается вернуть былую славу Старлинг-Сити.

Продолжительность: ~ 00:42:00 серия
Качество видео: HDRip
Видео: 720x400 (16:9), 23.976 fps, XviD MPEG-4 ~1900 kbps avg, 0.29 bit/pixel
Аудио Rus: 48 kHz, AC3 Dolby Digital, 3/2 (L,C,R,l,r) + LFE ch, ~384 kbps
Аудио Eng: 48 kHz, AC3 Dolby Digital, 3/2 (L,C,R,l,r) + LFE ch, ~448 kbps
Общее
Полное имя : H:\MY UPLOAD\Arrow.Season.1.2012-2013.New-Team.BDRip.Dub.Eng\Arrow.S01E01.Dub.New-Team.Rus.Eng.avi
Формат : AVI
Формат/Информация : Audio Video Interleave
Размер файла : 830 Мбайт
Продолжительность : 42 м.
Общий поток : 2725 Кбит/сек
Программа кодирования : VirtualDubMod 1.5.10.2 (build 2540/release)
Библиотека кодирования : VirtualDubMod build 2540/release

Видео
Идентификатор : 0
Формат : MPEG-4 Visual
Профиль формата : Advanced Simple@L5
Параметр BVOP формата : 2
Параметр QPel формата : Нет
Параметр GMC формата : Без точки перехода
Параметр матрицы формата : Default (MPEG)
Идентификатор кодека : XVID
Идентификатор кодека/Подсказка : XviD
Продолжительность : 42 м.
Битрейт : 1879 Кбит/сек
Ширина : 720 пикселей
Высота : 400 пикселей
Соотношение сторон : 16:9
Частота кадров : 23,976 кадра/сек
Цветовое пространство : YUV
Субдискретизация насыщенности : 4:2:0
Битовая глубина : 8 бит
Тип развёртки : Прогрессивная
Метод сжатия : С потерями
Бит/(Пиксели*Кадры) : 0.272
Размер потока : 573 Мбайт (69%)
Библиотека кодирования : XviD 73

Аудио #1
Идентификатор : 1
Формат : AC-3
Формат/Информация : Audio Coding 3
Расширение режима : CM (complete main)
Параметр Endianness формата : Big
Идентификатор кодека : 2000
Продолжительность : 42 м.
Вид битрейта : Постоянный
Битрейт : 384 Кбит/сек
Каналы : 6 каналов
Расположение каналов : Front: L C R, Side: L R, LFE
Частота : 48,0 КГц
Битовая глубина : 16 бит
Метод сжатия : С потерями
Размер потока : 117 Мбайт (14%)
Выравнивание : Разделение по промежуткам
Продолжительность промежутка : 42 мс. (1,00 видеокадр)
Время предзагрузки промежутка : 500 мс.

Аудио #2
Идентификатор : 2
Формат : AC-3
Формат/Информация : Audio Coding 3
Расширение режима : CM (complete main)
Параметр Endianness формата : Big
Идентификатор кодека : 2000
Продолжительность : 42 м.
Вид битрейта : Постоянный
Битрейт : 448 Кбит/сек
Каналы : 6 каналов
Расположение каналов : Front: L C R, Side: L R, LFE
Частота : 48,0 КГц
Битовая глубина : 16 бит
Метод сжатия : С потерями
Размер потока : 137 Мбайт (16%)
Выравнивание : Разделение по промежуткам
Продолжительность промежутка : 42 мс. (1,00 видеокадр)
Время предзагрузки промежутка : 500 мс.
01. Pilot / Пилот
02. Honor Thy Father / Чти отца твоего
03. Lone Gunmen / Одинокий убийца
04. An Innocent Man / Невиновный
05. Damaged / Сломленный
06. Legacies / Наследие
07. Muse of Fire / Муза пламени
08. Vendetta / Вендетта
09. Year's End / Конец года
10. Burned / Сожжённый
11. Trust But Verify / Доверяй, но проверяй
12. Vertigo / Вертиго
13. Betrayal / Предательство
14. The Odyssey / Одиссея
15. Dodger / Доджер (Ловкач)
16. Dead to Rights / С поличным
17. The Huntress Returns / Охотница возвращается
18. Salvation / Спасение
19. Unfinished Business / Незавершённое дело
20. Home Invasion / Вторжение в дом
21. The Undertaking / Предприятие
22. Darkness on the Edge of Town / Тьма на подступах к городу
23. Sacrifice / Жертва
Запись с ТВ сделали: -JokeR- и #Antisnl#
Синхронизировал дубляж: Martokc
Стрела / Arrow все раздачи сериала

Скриншоты:

Время Раздачи: 24/7 - круглосуточно
[NNM-Club.me]_Arrow Season 1 BDRip Dub.torrent
 Торрент: Платиновая раздача  Зарегистрирован
 
Скачать


Примагнититься
 Зарегистрирован:   22 Ноя 2014 18:31:22
 Размер:   18,6 GB  (
 Рейтинг:   4,6 (Голосов: 51)
 Поблагодарили:   170
 Проверка:   Оформление проверено модератором 23 Ноя 2014 11:54:35
Как cкачать  ·  Как раздать  ·  Правильно оформить  ·  Поднять ратио!  

_________________
На первом месте у меня семья и дети, а хобби =>Мои РЕЛИЗЫ <= в свободное от них время
Дастан
Стаж: 7 лет 6 мес.
Сообщений: 12
Ratio: 34,729
100%
Когда будут оставшиеся серии?
WOLF 80 ®
Uploader 100+
Стаж: 10 лет 2 мес.
Сообщений: 480
Ratio: 3902,785
Раздал: 156,9 TB
Поблагодарили: 30373
100%
Откуда: Санкт-Петербург
russia.gif
22.11.2014 Добавлены 17-23 серии. Заменены серии с 1 по 16 (Замена русской звуковой дорожки на 5.1)Приятного просмотра. Перекачайте торрент!!!

_________________
На первом месте у меня семья и дети, а хобби =>Мои РЕЛИЗЫ <= в свободное от них время
SeeExZet
Стаж: 7 лет 8 мес.
Сообщений: 1
Ratio: 7,896
0%
Не качает(
Дастан
Стаж: 7 лет 6 мес.
Сообщений: 12
Ratio: 34,729
100%
Поставил на раздачу, забирайте кому надо
Показать сообщения:   
Начать новую тему   Ответить на тему    Торрент-трекер NNM-Club -> Зарубежные сериалы Часовой пояс: GMT + 3
Страница 1 из 1