Классический форум-трекер
canvas not supported
Нас вместе: 4 076 476

Маргарита Токажевская | Уроки рисования для детей и их родителей. 1-ый уровень (2012) DVDRip


 
 
RSS
Начать новую тему   Ответить на тему    Торрент-трекер NNM-Club -> Видео -> Обучающее Видео для родителей
Автор Сообщение
FedExe ®
Uploader 300+
Стаж: 9 лет 2 мес.
Сообщений: 9667
Ratio: 379,199
Поблагодарили: 925525
100%
Откуда: LoX - living off experien
Маргарита Токажевская | Уроки рисования для детей и их родителей. 1-ый уровень (2012) DVDRip
Автор (режиссер): Маргарита Токажевская
Жанр: Обучающие видеуроки
Продолжительность: 03:07:02
Качество видео: DVDRip
Видеокодек: MPEG4 (AVC)
Битрейт видео: ~273 Kbps
Размер кадра: 640х360
Аудиокодек: AAC
Битрейт аудио: 53.6 Kbps, 2 ch

Описание:
Наши видеоуроки, где основной материал – гуашь, записанные по уникальной авторской методике, созданы, чтобы помочь ребенку развить чувство цвета шаг за шагом, поэтапно, не перегружая психику, знакомясь с цветами красок, смешивая их и получая различные оттенки.

12 видеоуроков. Средняя продолжительность записи одного урока составляет около 15 мин. При этом среднее время выполнения одного рисунка ребенком примерно 60 мин. Для достижения максимальной эффективности уроков мы предлагаем вам заниматься рисованием вместе с ребенком, ведь ему может потребоваться ваша помощь.
Урок 1. Долька арбуза.
Задачи этого урока:
1. Рисование дуги.
2. Заполнение фона с помощью «тычковой» техники.
3. Учимся рисовать отдельные мазки на некотором расстоянии.
4. Знакомимся с техникой «примакивания».
5. Развиваем устойчивость внимания ребенка.

Урок 2. Гриб в траве.
Задачи этого урока:
1. Освоение фона «трава».
2. Закрашивание отдельных деталей.
3. Работа тонкой кистью (листики, веточки, ягодки, «грязинки» на ножке).
4. Воспитание устойчивости, переключаемости и длительности внимания.

Урок 3. Берёзовая роща на рассвете.
Задачи этого урока:
1. Заполнение большой фоновой площади.
2. Продолжаем осваивать технику «тычка».
3. Учимся работать тонкой кистью – черточки на березах и цветочки.
4. Развиваем внимательность и аккуратность.

Урок 4. Лодочка с парусом.
Задачи этого урока:
1. Учимся рисовать рассветное небо тремя красками.
2. Море – сплошное закрашивание.
3. Волны – полукруглые мазки.
4. Тренируем устойчивость внимания.

Урок 5. Медуза.
Задачи этого урока:
1. Знакомимся с фоном – «вода».
2. Учимся накладывать мазки различной длины рядом, не оставляя незакрашенных полосок.
3. Учимся рисовать волнистые линии карандашом (юбочка) и кистью (щупальца).
4. Продолжаем знакомиться с приемом «примакивание».

Урок 6. Цыплёнок в траве с ромашками.
Задачи этого урока:
1. Продолжаем осваивать работу мазками разной длины.
2. Рисование травы без отмывания кисточки.
3. Освоение тычковой техники.
4. Развитие внимательности и аккуратности.

Урок 7. Божьи коровки.
Задачи этого урока:
1. Рисование круглой формы карандашом.
2. Работа тонкой кистью над деталями.
3. Развитие аккуратности, терпения.

Урок 8. Ананас.
Задачи этого урока:
1. Учимся закрашивать фон мазками одной краской, набираяя ее из баночки тогда, когда она заканчивается на кисти.
2. Учимся работать тонкой кистью полукруглуми мазками.
3. Воспитываем переключаемость, концентрацию внимания, терпение, аккуратность.
4. Развиваем положительные эмоции во время работы и от созерцания результата.

Урок 9. Белый лебедь.
Задачи этого урока:
1. Учимся рисовать плавные линии.
2. Закрашивание большой плоскости одной краской.
3. Учимся рисовать перья «тычками».
4. Эмоциональная раскрепощенность ребенка – тычки, волны.

Урок 10. Сирень в корзине.
Задачи этого урока:
1. Закрашивание фона одной краской.
2. Продолжение освоения тычковой техники, работа разными кистями.
3. Техника «процарапывания».
4. Эмоциональная раскрепещенность ребенка.

Урок 11. Подсолнух.
Задачи этого урока:
1. Учимся рисовать один предмет, правильно располагаяя его внутри листа, внимательно вырисовывать лепестки.
2. Способы «примакивания», «процарапывания».
3. Учимся обводить сложные контуры.
4. Тренируем концентрацию, длительность внимания.

Урок 12. Лунная дорожка.
Задачи этого урока:
1. Закрепляем умение накладывать тоненькие отдельно расположенные мазки.
2. Освоение техники «набрызга».
3. Воспитываем устойчивость внимания (много одинаковых мазков).
General
Complete name : 2grib.mp4
Format : MPEG-4
Format profile : Base Media / Version 2
Codec ID : mp42
File size : 39.1 MiB
Duration : 16mn 38s
Overall bit rate : 329 Kbps
Encoded date : UTC 2012-09-16 10:10:16
Tagged date : UTC 2012-09-16 10:10:16

Video
ID : 1
Format : AVC
Format/Info : Advanced Video Codec
Format profile : High@L3.0
Format settings, CABAC : Yes
Format settings, ReFrames : 4 frames
Format settings, GOP : M=1, N=46
Codec ID : avc1
Codec ID/Info : Advanced Video Coding
Duration : 16mn 38s
Bit rate mode : Variable
Bit rate : 273 Kbps
Width : 640 pixels
Height : 360 pixels
Display aspect ratio : 16:9
Frame rate mode : Constant
Frame rate : 25.000 fps
Standard : PAL
Color space : YUV
Chroma subsampling : 4:2:0
Bit depth : 8 bits
Scan type : Progressive
Bits/(Pixel*Frame) : 0.047
Stream size : 32.5 MiB (83%)
Language : English
Encoded date : UTC 2012-09-16 10:10:16
Tagged date : UTC 2012-09-16 10:10:16
Color primaries : BT.470-6 System B, BT.470-6 System G, BT.601-6 625, BT.1358 625, BT.1700 625 PAL, BT.1700 625 SECAM
Transfer characteristics : BT.470-6 System B, BT.470-6 System G
Matrix coefficients : BT.470-6 System B, BT.470-6 System G, BT.601-6 625, BT.1358 625, BT.1700 625 PAL, BT.1700 625 SECAM, IEC 61966-2-4 601

Audio
ID : 2
Format : AAC
Format/Info : Advanced Audio Codec
Format profile : LC
Codec ID : 40
Duration : 16mn 37s
Bit rate mode : Constant
Bit rate : 53.6 Kbps
Channel(s) : 2 channels
Channel positions : Front: L R
Sampling rate : 44.1 KHz
Compression mode : Lossy
Stream size : 6.38 MiB (16%)
Language : English
Encoded date : UTC 2012-09-16 10:10:16
Tagged date : UTC 2012-09-16 10:10:16
Скриншоты:


Время раздачи: 24/7 (круглосуточно) - до 5 скачавших, далее по возможности.
[NNM-Club.me]_Margarita Tokazhevskaya Uroki risovaniya dlya detey i ih roditeley. 1-yiy uroven'.torrent
 Торрент: Платиновая раздача  Зарегистрирован
 
Скачать


Примагнититься
 Зарегистрирован:   08 Май 2014 21:57:07
 Размер:   449 MB  (
 Рейтинг:   4,8 (Голосов: 63)
 Поблагодарили:   236
 Проверка:   Оформление проверено модератором 09 Май 2014 08:22:10
Как cкачать  ·  Как раздать  ·  Правильно оформить  ·  Поднять ратио!  

_________________

Ну и конечно, данный материал выложен исключительно для ознакомления. После просмотра Вы обязаны удалить все файлы, отформатировать жесткий диск, разбить его молотком, облить кислотой и сжечь остатки в микроволновке.
Показать сообщения:   
Начать новую тему   Ответить на тему    Торрент-трекер NNM-Club -> Видео -> Обучающее Видео для родителей Часовой пояс: GMT + 3
Страница 1 из 1