Классический форум-трекер
canvas not supported
Нас вместе: 4 094 029

Двойник / The Double (2013) HDTVRip [VO]


Страницы:  1, 2  След. 
 
RSS
Начать новую тему   Ответить на тему    Торрент-трекер NNM-Club -> Архив торрентов -> Архив Видео
Автор Сообщение
Sедой ®
Стаж: 9 лет 6 мес.
Сообщений: 3057
Ratio: 5117,534
Поблагодарили: 644156
100%
Откуда: Донецк
Двойник / The Double (2013) HDTVRip
Год выпуска: 2013
Производство: Великобритания
Жанр: Триллер, Драма

Режиссер: Ричард Айоади
Продюсер: Амина Дасмал, Робин Фокс, Майкл Кейн
Актеры: Джесси Айзенберг, Миа Васиковска, Уоллес Шоун, Ясмин Пейдж, Ноа Тейлор, Джеймс Фокс, Крис О’Дауд, Салли Хокинс, Пэдди Консидайн, Кэти Мориарти

Описание фильма:
Саймон — скромный работяга. На работе его не замечают, а девушка мечты игнорирует. Кажется, что так будет продолжаться вечно, но однажды в конторе появляется Джеймс, внешне — двойник Саймона, но по характеру его полная противоположность — уверенный, харизматичный плейбой. К ужасу Саймона, Джеймс потихоньку начинает забирать его жизнь.

Перевод: Одноголосый закадровый, любительский
Озвучка / Автор перевода: Вячеслав Котов
Субтитры: Отсутствуют



Дата мировой премьеры: 7 сентября 2013
Дата российской премьеры: 1 мая 2014, «Премиум Фильм»

Продолжительность: 01:32:42
Качество видео: HDTVRip

Видеокодек: Xvid
Битрейт видео: ~1700 Kbit/s
Размер кадра: 720 x 400
Аудио #1: AC3, 48,0 КHz, 2.0, 192 Kbit/s - Русский
Аудио #2: AC3, 48,0 КHz, 2.0, 192 Kbit/s - Aнглийский
Код:
Общее
Полное имя                       : D:\Торренты\Двойник.2013.HDTVRip.avi
Формат                           : AVI
Формат/Информация                : Audio Video Interleave
Размер файла                     : 1,36 Гбайт
Продолжительность                : 1 ч. 32 м.
Общий поток                      : 2098 Кбит/сек
Программа кодирования            : VirtualDubMod 1.5.10.2 (build 2540/release)
Библиотека кодирования           : VirtualDubMod build 2540/release

Видео
Идентификатор                    : 0
Формат                           : MPEG-4 Visual
Профиль формата                  : Advanced Simple@L5
Параметр BVOP формата            : 2
Параметр QPel формата            : Да
Параметр GMC формата             : Без точки перехода
Параметр матрицы формата         : Default (H.263)
Режим смешивания                 : Сжатый битовый поток
Идентификатор кодека             : XVID
Идентификатор кодека/Подсказка   : XviD
Продолжительность                : 1 ч. 32 м.
Битрейт                          : 1700 Кбит/сек
Ширина                           : 720 пикс.
Высота                           : 400 пикс.
Соотношение сторон               : 16:9
Частота кадров                   : 25,000 кадр/сек
Цветовое пространство            : YUV
Подвыборка цветности             : 4:2:0
Битовая глубина                  : 8 бит
Тип развёртки                    : Прогрессивная
Метод сжатия                     : С потерями
Бит/(Пиксели*Кадры)              : 0.236
Размер потока                    : 1,10 Гбайт (81%)
Библиотека кодирования           : XviD 1.2.1 (UTC 2008-12-04)

Аудио #1
Идентификатор                    : 1
Формат                           : AC-3
Формат/Информация                : Audio Coding 3
Расширение режима                : CM (complete main)
Идентификатор кодека             : 2000
Продолжительность                : 1 ч. 32 м.
Вид битрейта                     : Постоянный
Битрейт                          : 192 Кбит/сек
Каналы                           : 2 канала
Расположение каналов             : Front: L R
Частота                          : 48,0 КГц
Битовая глубина                  : 16 бит
Метод сжатия                     : С потерями
Размер потока                    : 127 Мбайт (9%)
Выравнивание                     : Разделение по промежуткам
Продолжительность промежутка     : 40  мс. (1,00 видеокадр)
Время предзагрузки промежутка    : 500 ms

Аудио #2
Идентификатор                    : 2
Формат                           : AC-3
Формат/Информация                : Audio Coding 3
Расширение режима                : CM (complete main)
Идентификатор кодека             : 2000
Продолжительность                : 1 ч. 32 м.
Вид битрейта                     : Постоянный
Битрейт                          : 192 Кбит/сек
Каналы                           : 2 канала
Расположение каналов             : Front: L R
Частота                          : 48,0 КГц
Битовая глубина                  : 16 бит
Метод сжатия                     : С потерями
Размер потока                    : 127 Мбайт (9%)
Выравнивание                     : Разделение по промежуткам
Продолжительность промежутка     : 40  мс. (1,00 видеокадр)
Время предзагрузки промежутка    : 500 ms

Скриншоты:

Время раздачи: 24/7 по возможности
[NNM-Club.me]_Dvoynik.2013.HDTVRip.avi.torrent
 Торрент: Платиновая раздача  Зарегистрирован
 
Скачать


Примагнититься
 Зарегистрирован:   09 Май 2014 16:26:23
 Размер:   1,36 GB  (
 Рейтинг:   4,5 (Голосов: 143)
 Поблагодарили:   865
 Проверка:   Оформление проверено модератором 09 Май 2014 16:43:23
Как cкачать  ·  Как раздать  ·  Правильно оформить  ·  Поднять ратио!  
ТаняЗ
Стаж: 6 лет
Сообщений: 12
Ratio: 3,795
2.33%
качество как, интересно
Feo156
Стаж: 10 лет 9 мес.
Сообщений: 14
Ratio: 5,765
Поблагодарили: 35
2.43%
andorra.gif
Отличный фильм,это экранизация романа "Двойник" Достоевского.
Любителям Кафки и Достоевского советую!
MAIKLLL
Стаж: 10 лет 1 мес.
Сообщений: 254
Ratio: 2,559
100%
Откуда: Новороссия
ussr.gif
Стрёмный фильм
mvclub
Стаж: 7 лет 8 мес.
Сообщений: 2226
Ratio: 32,29
Раздал: 5,876 TB
Поблагодарили: 37762
100%
Откуда: Питер
russia.gif
Трудно представить Айзенберга "харизматичным плейбоем"...
Detonator64
Стаж: 8 лет 9 мес.
Сообщений: 4
Ratio: 6,971
100%
russia.gif
Фильм не о чем скукатища(((
Fu11eren
Стаж: 9 лет 8 мес.
Сообщений: 931
Ratio: 5,332
Поблагодарили: 7990
100%
Откуда: Москва
russia.gif
Detonator64 писал(а): Перейти к сообщению
Фильм не о чем скукатища(((

А как вам книга?

_________________
В одном не вправе мы жаловаться на жизнь: она никого не держит.
[Death_Gamer]
Стаж: 10 лет 5 мес.
Сообщений: 468
Ratio: 23,361
100%
нука нука интересно, заценим
kalinart
Стаж: 8 лет 4 мес.
Сообщений: 14
Ratio: 29,535
34.19%
ResidentGamer писал(а): Перейти к сообщению
Fu11eren
Точно также, как и "Трудно быть богом". Но там, по сути, не арт хаус, а настоящее   от маразматика.

Ну если "Трудно быть богом" так назвать... А ведь один из лучших романов своего, да и не только, времени.
Кстати когда так отзываетесь, делайте поправку на время написания книги, время и тех. условия съемок.
phototehnika
Стаж: 9 лет
Сообщений: 16
Ratio: 1,081
0%
russia.gif
Перевод дурацкий какой-то , невозможно смотреть ,качество норм.
bah_denis
Стаж: 10 лет 4 мес.
Сообщений: 552
Ratio: 14,352
100%
russia.gif
kalinart писал(а): Перейти к сообщению
ResidentGamer писал(а): Перейти к сообщению
Fu11eren
Точно также, как и "Трудно быть богом". Но там, по сути, не арт хаус, а настоящее   от маразматика.

Ну если "Трудно быть богом" так назвать... А ведь один из лучших романов своего, да и не только, времени.
Кстати когда так отзываетесь, делайте поправку на время написания книги, время и тех. условия съемок.


Разговор про отстойный фильм(если его можно так назвать), а не про талантливый роман. Не путайте теплое с мягким.
velesweb
 
Стаж: 8 лет 4 мес.
Сообщений: 339
Ratio: 0,765
100%
Откуда: СПб
russia.gif
Хорошее артхаусное кино. В мрачноватых тонах. С русской картавой озвучкой. Чем-то напомнило недавний Враг с Джилленхолом.
pamdex
Стаж: 6 лет 7 мес.
Сообщений: 96
Ratio: 1,055
7.61%
Шизоврения у чувачка, поэтому двоиться. Вы бы там пожили где он, вы бы тоже двоиться началали. Логичный финал - стоило ожидать.
nutvideo
Стаж: 9 лет 8 мес.
Сообщений: 93
Ratio: 50,4
Поблагодарили: 105
100%
Откуда: Воронеж
russia.gif
Чумовой фильм. Сюжет, графика, стилизация... Давно такого не видел.
botbomj
Стаж: 8 лет 10 мес.
Сообщений: 32
Ratio: 22,489
37.5%
Откуда: Рязань
russia.gif
интересно перевод норм будет?
Показать сообщения:   
Начать новую тему   Ответить на тему    Торрент-трекер NNM-Club -> Архив торрентов -> Архив Видео Часовой пояс: GMT + 3
Страницы:  1, 2  След.
Страница 1 из 2