Классический форум-трекер
canvas not supported
Нас вместе: 4 082 464

Остаться в живых / Lost (2004-2010) Blu-Ray Remux [1080p] (1-6 сезоны, 121 серии из 121)


Страницы:  1, 2, 3  След. 
 
RSS
Начать новую тему   Ответить на тему    Торрент-трекер NNM-Club -> Зарубежные сериалы -> Остаться в живых / Lost
Автор Сообщение
pybin1 ®
Стаж: 10 лет 3 мес.
Сообщений: 390
Ratio: 24,175
Поблагодарили: 23319
100%
russia.gif
Остаться в живых / Lost (1-6 сезоны, 121 серии из 121) (2004-2010) Blu-Ray Remux (1080p)

Остаться в живых / LOST (сезон 1) (2004-2005) Blu-Ray Remux (1080p)
Русское название: Остаться в живых (сезон 1)
Оригинальное название: LOST
Год выпуска: 2004-2005
Страна: США
Жанр: Фантастика, Триллер, Драма, Приключения, Детектив
Перевод: Дублированный


Премьера (мир): 22 сентября 2004
Дата российской премьеры: 10 июля 2005
Релиз на DVD: 15 октября 2009

Режиссер: Джей Джей Абрамс, Джек Бендер, Кевин Хукс, Майкл Зинберг, Грег Ятанес, Марита Грабяк, Стивен Уильямс, Род Холкомб, Такер Гейтс, Дэниель Атиас, Роберт Мендел
Актеры: Мэтью Фокс, Эванджелин Лилли, Доминик Монахэн, Гарольд Перрино-мл., Джордж Гарсия, Малкольм Дэвид Келли, Фредерик Ленн, Джон Диксон, Майкл Артур, Джош Холлоуэй, Терри О’Куинн, Нэвин Эндрюс, Майкл Эмерсон, Эмили де Рэйвин, Дэниэл Дэй Ким, Юн-жин Ким, Генри Йен Кьюсик, Элизабет Митчелл

Описание фильма:
Красавец-лайнер, совершающий полет из Сиднея в Лос-Анджелес, неожиданно терпит крушение. 48 пассажиров, оставшихся в живых, оказываются на пустынном острове посреди океана. Люди в панике. Надежда быть найденными довольно призрачна. Поэтому остается только одно: собраться с силами и постараться выжить на острове, начиненном множеством опасностей....
Продолжительность: ~ 00:42:00 серия
Качество видео: Blu-Ray Remux

Видеокодек: AVC MPEG-4(H.264)
Битрейт видео: ~21.5 Mbps avg
Размер кадра: 1920x1080, 23.976 кадр/с
Audio №1 (Rus): AC3, 48000 Hz, 6ch, 448 kbps - дублированный
Audio №2 (Eng): DTS, 48000 Hz, 6ch, 1536 kbps - оригинал
Субтитры: Русские, английские

Сэмпл: Скачать
1). Пилот. Часть 1 (Pilot: Part 1).
2). Пилот. Часть 2 (Pilot: Part 2).
3). Чистая доска (Tabula Rasa).
4). Поход (Walkabout).
5). Белый кролик (White Rabbit)
6). Дом восходящего солнца (House of the Rising Sun).
7). Мотылек (The Moth).
8). Мошенник (Confidence Man).
9). Уединение (Solitary).
10). Взрощенный другими (Raised by Another).
11). У всех лучших ковбоев были проблемы с родителями (All the Best Cowboys Have Daddy Issues).
12). Что бы в этом кейсе не было (Whatever the Case May Be).
13). Чувство и разум (Hearts and Minds).
14). Особенный (Special). Исправлено!
15). Возвращение домой (Homecoming).
16). Внезаконники (Outlaws).
17). В переводе (...In Translation).
18). Числа (Numbers).
19). Бог из машины (Deus Ex Machina).
20). Не навреди (Do No Harm).
21). Большая польза (The Greater Good).
22). Рожденная бежать (Born to Run).
23). Исход. Часть 1 (Exodus: Part 1).
24). Исход. Часть 2 (Exodus: Part 2).
25). Исход. Часть 3 (Exodus: Part 3).
General
Unique ID : 249819809924087119715778779441807119404 (0xBBF18B9661B7536AB4AB27EF0AF6542C)
Complete name : E:\LOST.1-6.Seasons.2004-2010.MPEG-4.Blu-Ray.Remux.1080p\LOST.S1.2004-2005.MPEG-4.Blu-Ray.Remux.1080p\LOST.S1.E01.2004-2005.MPEG-4.Blu-Ray.Remux.1080p.mkv
Format : Matroska
Format version : Version 2
File size : 7.07 GiB
Duration : 42mn 20s
Overall bit rate mode : Variable
Overall bit rate : 23.9 Mbps
Encoded date : UTC 2013-04-24 22:30:57
Writing application : mkvmerge v4.0.0 ('The Stars were mine') сборка от Jun 6 2010 16:18:42
Writing library : libebml v1.0.0 + libmatroska v1.0.0

Video
ID : 1
Format : AVC
Format/Info : Advanced Video Codec
Format profile : High@L4.1
Format settings, CABAC : Yes
Format settings, ReFrames : 2 frames
Codec ID : V_MPEG4/ISO/AVC
Duration : 42mn 20s
Bit rate mode : Variable
Bit rate : 21.5 Mbps
Width : 1 920 pixels
Height : 1 080 pixels
Display aspect ratio : 16:9
Frame rate mode : Constant
Frame rate : 23.976 fps
Color space : YUV
Chroma subsampling : 4:2:0
Bit depth : 8 bits
Scan type : Progressive
Bits/(Pixel*Frame) : 0.432
Stream size : 6.35 GiB (90%)
Language : English
Default : Yes
Forced : No

Audio #1
ID : 2
Format : AC-3
Format/Info : Audio Coding 3
Mode extension : CM (complete main)
Format settings, Endianness : Big
Codec ID : A_AC3
Duration : 42mn 20s
Bit rate mode : Constant
Bit rate : 448 Kbps
Channel(s) : 6 channels
Channel positions : Front: L C R, Side: L R, LFE
Sampling rate : 48.0 KHz
Bit depth : 16 bits
Compression mode : Lossy
Stream size : 136 MiB (2%)
Title : DD 5.1 @ Dub Channel One
Language : Russian
Default : Yes
Forced : No

Audio #2
ID : 3
Format : DTS
Format/Info : Digital Theater Systems
Mode : 16
Format settings, Endianness : Big
Codec ID : A_DTS
Duration : 42mn 20s
Bit rate mode : Constant
Bit rate : 1 509 Kbps
Channel(s) : 6 channels
Channel positions : Front: L C R, Side: L R, LFE
Sampling rate : 48.0 KHz
Bit depth : 24 bits
Compression mode : Lossy
Stream size : 457 MiB (6%)
Title : DTS 5.1 @ Core
Language : English
Default : No
Forced : No

Text #1
ID : 4
Format : ASS
Codec ID : S_TEXT/ASS
Codec ID/Info : Advanced Sub Station Alpha
Compression mode : Lossless
Title : Russian @ Forced ASS
Language : Russian
Default : Yes
Forced : Yes

Text #2
ID : 5
Format : ASS
Codec ID : S_TEXT/ASS
Codec ID/Info : Advanced Sub Station Alpha
Compression mode : Lossless
Title : Russian @ ASS
Language : Russian
Default : No
Forced : No

Text #3
ID : 6
Format : ASS
Codec ID : S_TEXT/ASS
Codec ID/Info : Advanced Sub Station Alpha
Compression mode : Lossless
Title : English @ ASS
Language : English
Default : No
Forced : No

Menu
00:00:00.000 : en:Chapter 1
00:07:32.034 : en:Chapter 2
00:21:16.775 : en:Chapter 3
00:30:07.847 : en:Chapter 4
00:39:01.964 : en:Chapter 5
00:41:39.538 : en:Chapter 6
Скриншоты:

Остаться в живых / LOST (сезон 2) (2005-2006) Blu-Ray Remux (1080p)
Русское название: Остаться в живых (сезон 2)
Оригинальное название: LOST
Год выпуска: 2005-2006
Страна: США
Жанр: Фантастика, Триллер, Драма, Приключения, Детектив


Премьера (мир): 22 сентября 2004
Дата российской премьеры: 10 июля 2005
Релиз на DVD: 15 октября 2009

Режиссеры: Джей Джей Абрамс, Джек Бендер, Кевин Хукс, Майкл Зинберг, Грег Ятанес, Марита Грабяк, Стивен Уильямс, Род Холкомб, Такер Гейтс, Дэниель Атиас, Роберт Мендел
Актеры: Мэтью Фокс, Эванджелин Лилли, Доминик Монахэн, Гарольд Перрино-мл., Джордж Гарсия, Малкольм Дэвид Келли, Фредерик Ленн, Джон Диксон, Майкл Артур, Джош Холлоуэй, Терри О’Куинн, Нэвин Эндрюс, Майкл Эмерсон, Эмили де Рэйвин, Дэниэл Дэй Ким, Юн-жин Ким, Генри Йен Кьюсик, Элизабет Митчелл

Описание фильма:
Красавец-лайнер, совершающий полет из Сиднея в Лос-Анджелес, неожиданно терпит крушение. 48 пассажиров, оставшихся в живых, оказываются на пустынном острове посреди океана. Люди в панике. Надежда быть найденными довольно призрачна. Поэтому остается только одно: собраться с силами и постараться выжить на острове, начиненном множеством опасностей....
Продолжительность: 23 х ~ 00:43:00
Качество видео: Blu-Ray Remux

Видеокодек: AVC MPEG-4(H.264)
Битрейт видео: 20 Мбит/с
Размер кадра: 1920x1080, 23.976 кадр/с
Аудиокодек: AC3
Битрейт аудио:
Audio№1: Dolby AC3 48000Hz 6ch 448kbps [A: DD 5.1 @ Channel One [rus] (ac3, 48000 Hz, 5.1, 448 kb/s) [default]]
Audio№2: DTS 48000Hz 6ch 1536kbps [A: DTS 5.1 @ Core [eng] (dts, 48000 Hz, 5.1, 1536 kb/s)] / Дублированный
Субтитры: Русские, английские
1). Человек науки, человек веры (Man Of Science Man Of Faith).
2). По течению (Adrift).
3). Ориентация (Orientation).
4). Все ненавидят Хёрли (Everybody Hates Hugo).
5). И Обнаруженное (And Found).
6). Покинутое (Abandoned).
7). Другие 48 дней (The Other 48 Days).
8). Столкновение (Collision).
9). Что сделала Кейт (What Kate Did).
10). 23-й Псалом (The 23rd Psalm).
11). Отряд охотников (The Hunting Party).
12). Огонь + Вода (Fire + Water).
13). Длинная афера (The Long Con).
14). Один из них (One of Them).
15). Декретный отпуск (Maternity Leave).
16). Вся правда (The Whole Truth).
17). Взаперти (Lockdown).
18). Дэйв (Dave).
19). S.O.S.
20). Двое (Two for the Road).
21). "?"
22). Три минуты (3 Minutes).
23-24). Жить вместе, умереть поодиночке (Live Together Die Alone).
General
Unique ID : 241694206516318438158785266095419455378 (0xB5D49C68A04E423BA63FEE63C31A7792)
Complete name : E:\LOST.1-6.Seasons.2004-2010.MPEG-4.Blu-Ray.Remux.1080p\LOST.S2.2005-2006.MPEG-4.Blu-Ray.Remux.1080p\LOST.S2.E01.2005-2006.MPEG-4.Blu-Ray.Remux.1080p.mkv
Format : Matroska
Format version : Version 2
File size : 7.23 GiB
Duration : 1h 39mn
Overall bit rate mode : Variable
Overall bit rate : 10.4 Mbps
Encoded date : UTC 2013-04-25 16:57:56
Writing application : mkvmerge v4.0.0 ('The Stars were mine') сборка от Jun 6 2010 16:18:42
Writing library : libebml v1.0.0 + libmatroska v1.0.0

Video
ID : 1
Format : AVC
Format/Info : Advanced Video Codec
Format profile : High@L4.1
Format settings, CABAC : Yes
Format settings, ReFrames : 2 frames
Muxing mode : Container profile=Unknown@0.0
Codec ID : V_MPEG4/ISO/AVC
Duration : 1h 39mn
Bit rate mode : Variable
Bit rate : 8 282 Kbps
Width : 1 920 pixels
Height : 1 080 pixels
Display aspect ratio : 16:9
Frame rate mode : Constant
Frame rate : 23.976 fps
Color space : YUV
Chroma subsampling : 4:2:0
Bit depth : 8 bits
Scan type : Progressive
Bits/(Pixel*Frame) : 0.167
Stream size : 5.73 GiB (79%)
Language : English
Default : Yes
Forced : No

Audio #1
ID : 2
Format : AC-3
Format/Info : Audio Coding 3
Mode extension : CM (complete main)
Format settings, Endianness : Big
Codec ID : A_AC3
Duration : 1h 39mn
Bit rate mode : Constant
Bit rate : 448 Kbps
Channel(s) : 6 channels
Channel positions : Front: L C R, Side: L R, LFE
Sampling rate : 48.0 KHz
Bit depth : 16 bits
Compression mode : Lossy
Delay relative to video : 2ms
Stream size : 318 MiB (4%)
Title : DD 5.1 @ Channel One
Language : Russian
Default : Yes
Forced : No

Audio #2
ID : 3
Format : DTS
Format/Info : Digital Theater Systems
Mode : 16
Format settings, Endianness : Big
Codec ID : A_DTS
Duration : 1h 39mn
Bit rate mode : Constant
Bit rate : 1 510 Kbps
Channel(s) : 6 channels
Channel positions : Front: L C R, Side: L R, LFE
Sampling rate : 48.0 KHz
Bit depth : 24 bits
Compression mode : Lossy
Stream size : 1.05 GiB (14%)
Title : DTS 5.1 @ Core
Language : English
Default : No
Forced : No

Text #1
ID : 4
Format : ASS
Codec ID : S_TEXT/ASS
Codec ID/Info : Advanced Sub Station Alpha
Compression mode : Lossless
Title : Russian @ Forced ASS
Language : Russian
Default : Yes
Forced : Yes

Text #2
ID : 5
Format : ASS
Codec ID : S_TEXT/ASS
Codec ID/Info : Advanced Sub Station Alpha
Compression mode : Lossless
Title : Russian @ ASS
Language : Russian
Default : No
Forced : No

Text #3
ID : 6
Format : ASS
Codec ID : S_TEXT/ASS
Codec ID/Info : Advanced Sub Station Alpha
Compression mode : Lossless
Title : English @ ASS
Language : English
Default : No
Forced : No
Остаться в живых / LOST (сезон 3) (2006-2007) Blu-Ray Remux (1080p)
Русское название: Остаться в живых (сезон 3)
Оригинальное название: LOST
Год выпуска: 2006-2007
Страна: США
Жанр: Фантастика, Триллер, Драма, Приключения, Детектив


Премьера (мир): 22 сентября 2004
Дата российской премьеры: 10 июля 2005
Релиз на DVD: 15 октября 2009

Режиссеры: Джей Джей Абрамс, Джек Бендер, Кевин Хукс, Майкл Зинберг, Грег Ятанес, Марита Грабяк, Стивен Уильямс, Род Холкомб, Такер Гейтс, Дэниель Атиас, Роберт Мендел
Актеры: Мэтью Фокс, Эванджелин Лилли, Доминик Монахэн, Гарольд Перрино-мл., Джордж Гарсия, Малкольм Дэвид Келли, Фредерик Ленн, Джон Диксон, Майкл Артур, Джош Холлоуэй, Терри О’Куинн, Нэвин Эндрюс, Майкл Эмерсон, Эмили де Рэйвин, Дэниэл Дэй Ким, Юн-жин Ким, Генри Йен Кьюсик, Элизабет Митчелл

Описание фильма:
Красавец-лайнер, совершающий полет из Сиднея в Лос-Анджелес, неожиданно терпит крушение. 48 пассажиров, оставшихся в живых, оказываются на пустынном острове посреди океана. Люди в панике. Надежда быть найденными довольно призрачна. Поэтому остается только одно: собраться с силами и постараться выжить на острове, начиненном множеством опасностей....
Продолжительность: 22 х ~ 00:43:00
Качество видео: Blu-Ray Remux

Видеокодек: AVC MPEG-4(H.264)
Битрейт видео: 20 Мбит/с
Размер кадра: 1920x1080, 23.976 кадр/с
Аудиокодек: AC3
Битрейт аудио:
Audio№1: Dolby AC3 48000Hz stereo 320kbps [A: DD 2.0 @ Channel One [rus] (ac3, 48000 Hz, stereo, 320 kb/s) [default]]
Audio№2: DTS 48000Hz 6ch 1536kbps [A: DTS 5.1 @ Core [eng] (dts, 48000 Hz, 5.1, 1536 kb/s)] / Дублированный

Субтитры: Русские, английские[/color]
1). Повесть о двух городах (A Tale Of Two Cities).
2). Стеклянная балерина (The Glass Ballerina).
3). Дальнейшие указания (Further Instructions).
4). Каждый за себя (Every Man for Himself).
5). Цена жизни (The Cost of Living).
6). Я согласна (I DO).
7). Не в Портленде (Not in Portland).
8). Видения (Flashes Before Your Eyes).
9). Чужой среди чужих (Stranger in a Strange Land).
10). Триша Танака умерла (Tricia Tanaka Is Dead).
11). Введите 77 (Enter 77).
12). Авиапочта (Par Avion).
13). Человек из Таллахасси (The Man from Tallahassee).
14). Голая правда (Expose).
15). Брошенные (Left Behind).
16). Одна из нас (One of Us).
17). Безвыходное положение (Catch-22).
18). Дата зачатия (D.O.C.).
19). Гауптвахта (The Brig).
20). Человек за ширмой (The Man Behind the Curtain).
21). Избранное (Greatest Hits).
22-23). В Зазеркалье.
General
Unique ID : 215655675076071077180384168716521709202 (0xA23DC5B0E7A92D3EAEC94FE879881E92)
Complete name : E:\LOST.1-6.Seasons.2004-2010.MPEG-4.Blu-Ray.Remux.1080p\LOST.S3.2006-2007.MPEG-4.Blu-Ray.Remux.1080p\LOST.S3.E01.2006-2007.MPEG-4.Blu-Ray.Remux.1080p.mkv
Format : Matroska
Format version : Version 4 / Version 2
File size : 6.39 GiB
Duration : 43mn 18s
Overall bit rate mode : Variable
Overall bit rate : 21.1 Mbps
Encoded date : UTC 2013-04-29 17:31:37
Writing application : mkvmerge v6.1.0 ('Old Devil') built on Mar 4 2013 09:10:42
Writing library : libebml v1.3.0 + libmatroska v1.4.0

Video
ID : 1
Format : AVC
Format/Info : Advanced Video Codec
Format profile : High@L4.1
Format settings, CABAC : Yes
Format settings, ReFrames : 2 frames
Codec ID : V_MPEG4/ISO/AVC
Duration : 43mn 18s
Bit rate mode : Variable
Bit rate : 18.9 Mbps
Width : 1 920 pixels
Height : 1 080 pixels
Display aspect ratio : 16:9
Frame rate mode : Constant
Frame rate : 23.976 fps
Color space : YUV
Chroma subsampling : 4:2:0
Bit depth : 8 bits
Scan type : Progressive
Bits/(Pixel*Frame) : 0.379
Stream size : 5.71 GiB (89%)
Language : English
Default : Yes
Forced : No

Audio #1
ID : 2
Format : AC-3
Format/Info : Audio Coding 3
Format profile : Dolby Digital
Mode extension : CM (complete main)
Format settings, Endianness : Big
Codec ID : A_AC3
Duration : 43mn 18s
Bit rate mode : Constant
Bit rate : 320 Kbps
Channel(s) : 2 channels
Channel positions : Front: L R
Sampling rate : 48.0 KHz
Bit depth : 16 bits
Compression mode : Lossy
Stream size : 99.1 MiB (2%)
Title : DD 2.0 @ Channel One
Language : Russian
Default : Yes
Forced : No

Audio #2
ID : 3
Format : DTS
Format/Info : Digital Theater Systems
Mode : 16
Format settings, Endianness : Big
Codec ID : A_DTS
Duration : 43mn 18s
Bit rate mode : Constant
Bit rate : 1 509 Kbps
Channel(s) : 6 channels
Channel positions : Front: L C R, Side: L R, LFE
Sampling rate : 48.0 KHz
Bit depth : 24 bits
Compression mode : Lossy
Stream size : 467 MiB (7%)
Title : DTS 5.1 @ Core
Language : English
Default : No
Forced : No

Text #1
ID : 4
Format : PGS
Muxing mode : zlib
Codec ID : S_HDMV/PGS
Codec ID/Info : The same subtitle format used on BDs/HD-DVDs
Title : Russian @ Forced PGS
Language : Russian
Default : Yes
Forced : Yes

Text #2
ID : 5
Format : PGS
Muxing mode : zlib
Codec ID : S_HDMV/PGS
Codec ID/Info : The same subtitle format used on BDs/HD-DVDs
Title : Russian @ PGS
Language : Russian
Default : No
Forced : No

Text #3
ID : 6
Format : PGS
Muxing mode : zlib
Codec ID : S_HDMV/PGS
Codec ID/Info : The same subtitle format used on BDs/HD-DVDs
Title : English @ PGS
Language : English
Default : No
Forced : No
Остаться в живых / LOST (сезон 4) (2007-2008) Blu-Ray Remux (1080p)
Русское название: Остаться в живых (сезон 4)
Оригинальное название: LOST
Год выпуска: 2007-2008
Страна: США
Жанр: Фантастика, Триллер, Драма, Приключения, Детектив


Премьера (мир): 22 сентября 2004
Дата российской премьеры: 10 июля 2005
Релиз на DVD: 15 октября 2009

Режиссеры: Джей Джей Абрамс, Джек Бендер, Кевин Хукс, Майкл Зинберг, Грег Ятанес, Марита Грабяк, Стивен Уильямс, Род Холкомб, Такер Гейтс, Дэниель Атиас, Роберт Мендел
Актеры: Мэтью Фокс, Эванджелин Лилли, Доминик Монахэн, Гарольд Перрино-мл., Джордж Гарсия, Малкольм Дэвид Келли, Фредерик Ленн, Джон Диксон, Майкл Артур, Джош Холлоуэй, Терри О’Куинн, Нэвин Эндрюс, Майкл Эмерсон, Эмили де Рэйвин, Дэниэл Дэй Ким, Юн-жин Ким, Генри Йен Кьюсик, Элизабет Митчелл

Описание фильма:
Красавец-лайнер, совершающий полет из Сиднея в Лос-Анджелес, неожиданно терпит крушение. 48 пассажиров, оставшихся в живых, оказываются на пустынном острове посреди океана. Люди в панике. Надежда быть найденными довольно призрачна. Поэтому остается только одно: собраться с силами и постараться выжить на острове, начиненном множеством опасностей....
Продолжительность: 14 х ~ 00:43:00
Качество видео: Blu-Ray Remux

Видеокодек: AVC MPEG-4(H.264)
Битрейт видео: 20 Мбит/с
Размер кадра: 1920x1080, 23.976 кадр/с
Аудиокодек: AC3
Битрейт аудио:
Audio№1: Dolby AC3 48000Hz stereo 192kbps [A: DD 2.0 @ Channel One [rus] (ac3, 48000 Hz, stereo, 192 kb/s) [default]]
Audio№2: DTS 48000Hz 6ch 1536kbps [A: DTS 5.1 @ Core [eng] (dts, 48000 Hz, 5.1, 1536 kb/s)] / Дублированный
Субтитры: Русские, английские
1). Начало конца (The Beginning of the End).
2). Объявлены погибшими (Confirmed Dead).
3). Экономист (The Economist).
4). Просчет (Eggtown).
5). Постоянная величина (The Constant).
6). Соперница (The Other Woman).
7). Чи Ён (Ji Yeon).
8). Знакомьтесь - Кевин Джонсон (Meet Kevin Johnson).
9). Облик грядущего (The Shape of Things to Come).
10). Счастливая привычная жизнь (Something Nice Back Home).
11). Отшельник (Cabin Fever).
12). Долгожданное возвращение, часть 1 (There's No Place Like Home: Part 1).
13-14). Долгожданное возвращение: часть 2 и 3 (There's No Place Like Home: Part 2 & 3).
General
Unique ID : 187740649185034402521431369112702555967 (0x8D3D88A767FBD5408FBEA04AB57A173F)
Complete name : E:\LOST.1-6.Seasons.2004-2010.MPEG-4.Blu-Ray.Remux.1080p\LOST.S4.2008.MPEG-4.Blu-Ray.Remux.1080p\LOST.S4.E01.2008.MPEG-4.Blu-Ray.Remux.1080p.mkv
Format : Matroska
Format version : Version 4 / Version 2
File size : 7.26 GiB
Duration : 43mn 8s
Overall bit rate mode : Variable
Overall bit rate : 24.1 Mbps
Encoded date : UTC 2013-04-28 11:40:56
Writing application : mkvmerge v6.1.0 ('Old Devil') built on Mar 4 2013 09:10:42
Writing library : libebml v1.3.0 + libmatroska v1.4.0

Video
ID : 1
Format : AVC
Format/Info : Advanced Video Codec
Format profile : High@L4.1
Format settings, CABAC : Yes
Format settings, ReFrames : 2 frames
Codec ID : V_MPEG4/ISO/AVC
Duration : 43mn 8s
Bit rate mode : Variable
Bit rate : 21.9 Mbps
Width : 1 920 pixels
Height : 1 080 pixels
Display aspect ratio : 16:9
Frame rate mode : Constant
Frame rate : 23.976 fps
Color space : YUV
Chroma subsampling : 4:2:0
Bit depth : 8 bits
Scan type : Progressive
Bits/(Pixel*Frame) : 0.441
Stream size : 6.61 GiB (91%)
Language : English
Default : Yes
Forced : No

Audio #1
ID : 2
Format : AC-3
Format/Info : Audio Coding 3
Mode extension : CM (complete main)
Format settings, Endianness : Big
Codec ID : A_AC3
Duration : 43mn 8s
Bit rate mode : Constant
Bit rate : 192 Kbps
Channel(s) : 2 channels
Channel positions : Front: L R
Sampling rate : 48.0 KHz
Bit depth : 16 bits
Compression mode : Lossy
Stream size : 59.2 MiB (1%)
Title : DD 2.0 @ Channel One
Language : Russian
Default : Yes
Forced : No

Audio #2
ID : 3
Format : DTS
Format/Info : Digital Theater Systems
Mode : 16
Format settings, Endianness : Big
Codec ID : A_DTS
Duration : 43mn 8s
Bit rate mode : Constant
Bit rate : 1 510 Kbps
Channel(s) : 6 channels
Channel positions : Front: L C R, Side: L R, LFE
Sampling rate : 48.0 KHz
Bit depth : 24 bits
Compression mode : Lossy
Stream size : 466 MiB (6%)
Title : DTS 5.1 @ Core
Language : English
Default : No
Forced : No

Text #1
ID : 4
Format : ASS
Codec ID : S_TEXT/ASS
Codec ID/Info : Advanced Sub Station Alpha
Compression mode : Lossless
Title : Russian @ Forced ASS
Language : Russian
Default : Yes
Forced : Yes

Text #2
ID : 5
Format : ASS
Codec ID : S_TEXT/ASS
Codec ID/Info : Advanced Sub Station Alpha
Compression mode : Lossless
Title : Russian @ ASS
Language : Russian
Default : No
Forced : No

Text #3
ID : 6
Format : ASS
Codec ID : S_TEXT/ASS
Codec ID/Info : Advanced Sub Station Alpha
Compression mode : Lossless
Title : English @ ASS
Language : English
Default : No
Forced : No

Menu
00:00:00.000 : en:Chapter 1
00:03:43.932 : en:Chapter 2
00:12:20.489 : en:Chapter 3
00:19:40.971 : en:Chapter 4
00:25:03.418 : en:Chapter 5
00:32:30.782 : en:Chapter 6
00:42:31.840 : en:Chapter 7
Остаться в живых / LOST (сезон 5) (2008-2009) Blu-Ray Remux (1080p)
Русское название: Остаться в живых (сезон 5)
Оригинальное название: LOST
Год выпуска: 2008-2009
Страна: США
Жанр: Фантастика, Триллер, Драма, Приключения, Детектив


Премьера (мир): 22 сентября 2004
Дата российской премьеры: 10 июля 2005
Релиз на DVD: 15 октября 2009

Режиссеры: Джей Джей Абрамс, Джек Бендер, Кевин Хукс, Майкл Зинберг, Грег Ятанес, Марита Грабяк, Стивен Уильямс, Род Холкомб, Такер Гейтс, Дэниель Атиас, Роберт Мендел
Актеры: Мэтью Фокс, Эванджелин Лилли, Доминик Монахэн, Гарольд Перрино-мл., Джордж Гарсия, Малкольм Дэвид Келли, Фредерик Ленн, Джон Диксон, Майкл Артур, Джош Холлоуэй, Терри О’Куинн, Нэвин Эндрюс, Майкл Эмерсон, Эмили де Рэйвин, Дэниэл Дэй Ким, Юн-жин Ким, Генри Йен Кьюсик, Элизабет Митчелл

Описание фильма:
Красавец-лайнер, совершающий полет из Сиднея в Лос-Анджелес, неожиданно терпит крушение. 48 пассажиров, оставшихся в живых, оказываются на пустынном острове посреди океана. Люди в панике. Надежда быть найденными довольно призрачна. Поэтому остается только одно: собраться с силами и постараться выжить на острове, начиненном множеством опасностей....
Продолжительность: 16 х ~ 00:43:00
Качество видео: Blu-Ray Remux

Видеокодек: AVC MPEG-4(H.264)
Битрейт видео: 20 Мбит/с
Размер кадра: 1920x1080, 23.976 кадр/с
Аудиокодек: AC3
Битрейт аудио:
Audio№1: Dolby AC3 48000Hz stereo 192kbps [A: DD 2.0 @ Dub Channel One [rus] (ac3, 48000 Hz, stereo, 192 kb/s) [default]]
Audio№2: DTS 48000Hz 6ch 1536kbps [A: DTS 5.1 @ Core [eng] (dts, 48000 Hz, 5.1, 1536 kb/s)] / Дублированный
Субтитры: Русские, английские
1). Потому что вас нет (Because You Left).
2). Ложь (The Lie).
3). Бомба (Jughead).
4). Маленький Принц (The Little Prince).
5). Остров смерти (This Place Is Death).
6). 316.
7). Жизнь и смерть Джереми Бентама (The Life and Death of Jeremy Bentham).
8). Лефлёр (LaFleur).
9). Добро пожаловать (Namaste).
10). Это наш ты (He's Our You).
11). Обратной дороги нет (Whatever Happened, Happened).
12). Мертвый — значит мертвый (Dead Is Dead).
13). Некоторые любят планету Хот горячее (Some Like It Hoth).
14). Переменная величина (The Variable).
15). Следуй за лидером (Follow the Leader).
16-17). Катаклизм (The Incident).
General
Unique ID : 218283107600421333413358924573239901124 (0xA437CC1DB2AEF8308AA10C5750937BC4)
Complete name : E:\LOST.1-6.Seasons.2004-2010.MPEG-4.Blu-Ray.Remux.1080p\LOST.S5.2009.MPEG-4.Blu-Ray.Remux.1080p\LOST.S5.E01.2009.MPEG-4.Blu-Ray.Remux.1080p.mkv
Format : Matroska
Format version : Version 4 / Version 2
File size : 7.10 GiB
Duration : 43mn 4s
Overall bit rate mode : Variable
Overall bit rate : 23.6 Mbps
Encoded date : UTC 2013-04-30 22:18:00
Writing application : mkvmerge v6.1.0 ('Old Devil') built on Mar 4 2013 09:10:42
Writing library : libebml v1.3.0 + libmatroska v1.4.0
Attachment : Yes / Yes / Yes / Yes

Video
ID : 1
Format : AVC
Format/Info : Advanced Video Codec
Format profile : High@L4.1
Format settings, CABAC : Yes
Format settings, ReFrames : 2 frames
Codec ID : V_MPEG4/ISO/AVC
Duration : 43mn 4s
Bit rate mode : Variable
Bit rate : 21.4 Mbps
Width : 1 920 pixels
Height : 1 080 pixels
Display aspect ratio : 16:9
Frame rate mode : Constant
Frame rate : 23.976 fps
Color space : YUV
Chroma subsampling : 4:2:0
Bit depth : 8 bits
Scan type : Progressive
Bits/(Pixel*Frame) : 0.431
Stream size : 6.44 GiB (91%)
Language : English
Default : Yes
Forced : No

Audio #1
ID : 2
Format : AC-3
Format/Info : Audio Coding 3
Mode extension : CM (complete main)
Format settings, Endianness : Big
Codec ID : A_AC3
Duration : 43mn 4s
Bit rate mode : Constant
Bit rate : 192 Kbps
Channel(s) : 2 channels
Channel positions : Front: L R
Sampling rate : 48.0 KHz
Bit depth : 16 bits
Compression mode : Lossy
Stream size : 59.2 MiB (1%)
Title : DD 2.0 @ Dub Channel One
Language : Russian
Default : Yes
Forced : No

Audio #2
ID : 3
Format : DTS
Format/Info : Digital Theater Systems
Mode : 16
Format settings, Endianness : Big
Codec ID : A_DTS
Duration : 43mn 4s
Bit rate mode : Constant
Bit rate : 1 509 Kbps
Channel(s) : 6 channels
Channel positions : Front: L C R, Side: L R, LFE
Sampling rate : 48.0 KHz
Bit depth : 24 bits
Compression mode : Lossy
Stream size : 465 MiB (6%)
Title : DTS 5.1 @ Core
Language : English
Default : No
Forced : No

Text #1
ID : 4
Format : ASS
Codec ID : S_TEXT/ASS
Codec ID/Info : Advanced Sub Station Alpha
Compression mode : Lossless
Title : Russian @ Forced ASS
Language : Russian
Default : Yes
Forced : Yes

Text #2
ID : 5
Format : ASS
Codec ID : S_TEXT/ASS
Codec ID/Info : Advanced Sub Station Alpha
Compression mode : Lossless
Title : Russian @ ASS
Language : Russian
Default : No
Forced : No

Text #3
ID : 6
Format : ASS
Codec ID : S_TEXT/ASS
Codec ID/Info : Advanced Sub Station Alpha
Compression mode : Lossless
Title : English @ ASS
Language : English
Default : No
Forced : No

Menu
00:00:00.000 : en:Chapter 1
00:05:33.916 : en:Chapter 2
00:12:14.608 : en:Chapter 3
00:19:38.802 : en:Chapter 4
00:27:01.036 : en:Chapter 5
00:34:47.210 : en:Chapter 6
00:42:26.710 : en:Chapter 7
Остаться в живых / LOST (сезон 6) (2009-2010) Blu-Ray Remux (1080p)
Русское название: Остаться в живых (сезон 6)
Оригинальное название: LOST
Год выпуска: 2009-2010
Страна: США
Жанр: Фантастика, Триллер, Драма, Приключения, Детектив


Премьера (мир): 22 сентября 2004
Дата российской премьеры: 10 июля 2005
Релиз на DVD: 15 октября 2009

Режиссеры: Джей Джей Абрамс, Джек Бендер, Кевин Хукс, Майкл Зинберг, Грег Ятанес, Марита Грабяк, Стивен Уильямс, Род Холкомб, Такер Гейтс, Дэниель Атиас, Роберт Мендел
Актеры: Мэтью Фокс, Эванджелин Лилли, Доминик Монахэн, Гарольд Перрино-мл., Джордж Гарсия, Малкольм Дэвид Келли, Фредерик Ленн, Джон Диксон, Майкл Артур, Джош Холлоуэй, Терри О’Куинн, Нэвин Эндрюс, Майкл Эмерсон, Эмили де Рэйвин, Дэниэл Дэй Ким, Юн-жин Ким, Генри Йен Кьюсик, Элизабет Митчелл

Описание фильма:
Красавец-лайнер, совершающий полет из Сиднея в Лос-Анджелес, неожиданно терпит крушение. 48 пассажиров, оставшихся в живых, оказываются на пустынном острове посреди океана. Люди в панике. Надежда быть найденными довольно призрачна. Поэтому остается только одно: собраться с силами и постараться выжить на острове, начиненном множеством опасностей....
Продолжительность: ~ 00:42:00 серия
Качество видео: Blu-Ray Remux

Видеокодек: AVC MPEG-4(H.264)
Битрейт видео: 20 Мбит/с
Размер кадра: 1920x1080, 23.976 кадр/с
Аудиокодек: AC3
Битрейт аудио:
Audio№1: Dolby AC3 48000Hz stereo 192kbps [A: DD 2.0 @ Пифагор [rus] (ac3, 48000 Hz, stereo, 192 kb/s) [default]]
Audio№2: DTS 48000Hz 6ch 1536kbps [A: DTS 5.1 @ Core [eng] (dts, 48000 Hz, 5.1, 1536 kb/s)] / Дублированный

Субтитры: Русские, английские
1-2). Аэропорт Лос-Анджелеса (LA X).
3). Поступки Кейт (What Kate Does).
4). Замена (The Substitute).
5). Маяк (Lighthouse).
6). Закат (Sundown).
7). Доктор Лаинус (Dr. Linus).
8). Разведка (Recon).
9). Давным-давно (Ab Aeterno).
10). Пакет (The Package).
11). И жили они долго и счастливо (Happily Ever After).
12). Все любят Хьюго (Everybody Loves Hugo).
13). Последний рекрут (The Last Recruit).
14). Кандидат (The Candidate).
15). Из-за моря (Across the Sea).
16). За что они погибли (What They Died For).
17-18). Конец (The End).
General
Unique ID : 201487643828049019805516755368298195219 (0x97951BD19DDFDAA9979BF050D784A913)
Complete name : E:\LOST.1-6.Seasons.2004-2010.MPEG-4.Blu-Ray.Remux.1080p\LOST.S6.2010.MPEG-4.Blu-Ray.Remux.1080p\LOST.S6.E01-02.2010.MPEG-4.Blu-Ray.Remux.1080p.mkv
Format : Matroska
Format version : Version 4 / Version 2
File size : 13.9 GiB
Duration : 1h 24mn
Overall bit rate mode : Variable
Overall bit rate : 23.6 Mbps
Encoded date : UTC 2013-05-02 18:46:26
Writing application : mkvmerge v6.1.0 ('Old Devil') built on Mar 4 2013 09:10:42
Writing library : libebml v1.3.0 + libmatroska v1.4.0

Video
ID : 1
Format : AVC
Format/Info : Advanced Video Codec
Format profile : High@L4.1
Format settings, CABAC : Yes
Format settings, ReFrames : 2 frames
Codec ID : V_MPEG4/ISO/AVC
Duration : 1h 24mn
Bit rate mode : Variable
Bit rate : 21.4 Mbps
Width : 1 920 pixels
Height : 1 080 pixels
Display aspect ratio : 16:9
Frame rate mode : Constant
Frame rate : 23.976 fps
Color space : YUV
Chroma subsampling : 4:2:0
Bit depth : 8 bits
Scan type : Progressive
Bits/(Pixel*Frame) : 0.431
Stream size : 12.6 GiB (91%)
Language : English
Default : Yes
Forced : No

Audio #1
ID : 2
Format : AC-3
Format/Info : Audio Coding 3
Mode extension : CM (complete main)
Format settings, Endianness : Big
Codec ID : A_AC3
Duration : 1h 24mn
Bit rate mode : Constant
Bit rate : 192 Kbps
Channel(s) : 2 channels
Channel positions : Front: L R
Sampling rate : 48.0 KHz
Bit depth : 16 bits
Compression mode : Lossy
Stream size : 116 MiB (1%)
Title : DD 2.0 @ Пифагор
Language : Russian
Default : Yes
Forced : No

Audio #2
ID : 3
Format : DTS
Format/Info : Digital Theater Systems
Mode : 16
Format settings, Endianness : Big
Codec ID : A_DTS
Duration : 1h 24mn
Bit rate mode : Constant
Bit rate : 1 509 Kbps
Channel(s) : 6 channels
Channel positions : Front: L C R, Side: L R, LFE
Sampling rate : 48.0 KHz
Bit depth : 24 bits
Compression mode : Lossy
Stream size : 908 MiB (6%)
Title : DTS 5.1 @ Core
Language : English
Default : No
Forced : No

Text #1
ID : 4
Format : ASS
Codec ID : S_TEXT/ASS
Codec ID/Info : Advanced Sub Station Alpha
Compression mode : Lossless
Title : Russian @ Forced ASS
Language : Russian
Default : Yes
Forced : Yes

Text #2
ID : 5
Format : ASS
Codec ID : S_TEXT/ASS
Codec ID/Info : Advanced Sub Station Alpha
Compression mode : Lossless
Title : Russian @ ASS
Language : Russian
Default : No
Forced : No

Text #3
ID : 6
Format : ASS
Codec ID : S_TEXT/ASS
Codec ID/Info : Advanced Sub Station Alpha
Compression mode : Lossless
Title : English @ ASS
Language : English
Default : No
Forced : No

Menu
00:00:00.000 : en:Chapter 1
00:07:14.058 : en:Chapter 2
00:17:41.560 : en:Chapter 3
00:22:45.655 : en:Chapter 4
00:27:34.402 : en:Chapter 5
00:36:23.014 : en:Chapter 6
00:44:02.056 : en:Chapter 7
00:51:01.975 : en:Chapter 8
01:00:14.444 : en:Chapter 9
01:07:38.679 : en:Chapter 10
01:15:39.493 : en:Chapter 11
01:23:28.753 : en:Chapter 12
01:24:06.791 : en:Chapter 13
Все релизы сериала (Остаться в Живых)
Время раздачи: По мере возможности.
[NNM-Club.me]_LOST.1-6.Seasons.2004-2010.MPEG-4.Blu-Ray.Remux.1080p.torrent
 Торрент: Платиновая раздача  Зарегистрирован
 
Скачать


Примагнититься
 Зарегистрирован:   11 Май 2014 06:39:19
 Размер:   853 GB  (
 Рейтинг:   4,9 (Голосов: 198)
 Поблагодарили:   527
 Проверка:   Оформление проверено модератором 13 Май 2014 08:38:12
Как cкачать  ·  Как раздать  ·  Правильно оформить  ·  Поднять ратио!  
Tiberiumsun69
Стаж: 6 лет
Сообщений: 1410
Ratio: 115,867
Раздал: 28,61 TB
Поблагодарили: 44860
100%
nnm-club.gif
pybin1
Спасибо.Первый сериал на очереди после 100 релиза. :да:

_________________
Торренты - это потенциал который нужно легализовать!
pybin1 ®
Стаж: 10 лет 3 мес.
Сообщений: 390
Ratio: 24,175
Поблагодарили: 23319
100%
russia.gif
Tiberiumsun69 писал(а): Перейти к сообщению
pybin1
Спасибо.Первый сериал на очереди после 100 релиза. :да:

Пожалуйста. Надеюсь что нормально оформил релиз =)
Tiberiumsun69
Стаж: 6 лет
Сообщений: 1410
Ratio: 115,867
Раздал: 28,61 TB
Поблагодарили: 44860
100%
nnm-club.gif
pybin1
Не жалейте скорости.Буду скачивать и сидеть на раздаче неделю.

_________________
Торренты - это потенциал который нужно легализовать!
derini
 
Стаж: 12 лет 8 мес.
Сообщений: 1226
Ratio: 6,105
Поблагодарили: 4673
100%
comoros.gif
Скачал для пробы первую серию.
Качество, конечно, потрясающее. С тоской вспомнил, в каком Цензура качестве смотрел первый сезон 9 лет назад...
KPEATUB
Стаж: 7 лет 10 мес.
Сообщений: 71
Ratio: 6,281
100%
pirates.png
Ребята, а чья озвучка? Lostfilm?
grinyaulis
Покровитель талантов
Олигарх Клуба, Uploader 100+
 
Стаж: 7 лет 3 мес.
Сообщений: 1126
Ratio: 1673,89
Раздал: 208,4 TB
100%
Откуда: из СССР
ussr.gif
Сериал потрясный. Спасибо :приветствую:

_________________
…никогда и ничего не просите! Никогда и ничего, и в особенности у тех, кто сильнее вас. Сами предложат и сами всё дадут!

vavag08
Uploader 100+
Стаж: 9 лет 4 мес.
Сообщений: 902
Ratio: 85,156
Поблагодарили: 109
100%
Откуда: Оттуда я один такой.
ussr.gif
Слышал продолжение снимать будут или уже снимается.

_________________
Делай добро и бросай его в воду. Оно не пропадёт — добром к тебе вернётся.
Unriot
Стаж: 5 лет 7 мес.
Сообщений: 7
Ratio: 3,329
79.69%
Перевод от лостфильм?
..XyZ..
Стаж: 9 лет 7 мес.
Сообщений: 1
Ratio: 2,426
0%
russia.gif
Господа, скажите же, от кого перевод.
xLiONx
Стаж: 6 лет 2 мес.
Сообщений: 213
Ratio: 1389,675
Поблагодарили: 1939
100%
ukraine.gif
..XyZ.. писал(а): Перейти к сообщению
Господа, скажите же, от кого перевод.

В MediaInfo указано следующее: "Title : DD 5.1 @ Dub Channel One"
Mega Atheros
Стаж: 8 лет 5 мес.
Сообщений: 24
Ratio: 3,516
Раздал: 506 GB
Поблагодарили: 5500
100%
russia.gif
Встаньте пожалуйста на раздачу. :поклоняется:
vavag08
Uploader 100+
Стаж: 9 лет 4 мес.
Сообщений: 902
Ratio: 85,156
Поблагодарили: 109
100%
Откуда: Оттуда я один такой.
ussr.gif
Mega Atheros писал(а): Перейти к сообщению
Встаньте пожалуйста на раздачу. :поклоняется:


Да вроде почти всегда на раздаче стою. По вечерам точно.

_________________
Делай добро и бросай его в воду. Оно не пропадёт — добром к тебе вернётся.
arTEMKA_nab
Стаж: 7 лет 8 мес.
Сообщений: 17
Ratio: 194,564
100%
russia.gif
Встаю на раздачу серий с 4 сезона 11 серии по 6 сезон :)
FiMAX19
Стаж: 7 лет
Сообщений: 4
Ratio: 9,676
66.67%
Господа, у всех нормально качает? У меня немного загрузит, потом падает до 0, долго так висит, потом снова чуть-чуть загрузка, снова 0 и так до бесконечности...
Показать сообщения:   
Начать новую тему   Ответить на тему    Торрент-трекер NNM-Club -> Зарубежные сериалы -> Остаться в живых / Lost Часовой пояс: GMT + 3
Страницы:  1, 2, 3  След.
Страница 1 из 3