Классический форум-трекер
canvas not supported
Нас вместе: 4 077 806

Бесхитростное убийство / Den enfaldige mordaren (1982) DVDRip


 
 
RSS
Начать новую тему   Ответить на тему    Торрент-трекер NNM-Club -> Классика кино и Старые фильмы до 90-х -> Старые Зарубежные Фильмы (HD*Rip/LQ, DVDRip, SATRip, VHSRip)
Автор Сообщение
ugiugij ®
Стаж: 9 лет 11 мес.
Сообщений: 271
Ratio: 261,541
Поблагодарили: 4396
100%
logo.gif
Бесхитростное убийство / Den enfaldige mördaren (1982) DVDRip
Год выпуска: 1982
Жанр: Драма
Страна: Швеция

Описание фильма:
После смерти матери Свен, которого все называют не иначе, как «идиот», становится подсобным рабочим на ферме состоятельного господина Хеглунда. Свен не получает зарплаты, спит в сарае вместе с коровами и терпит издевательства хозяина.
Однажды Свен убегает от хозяина и остается жить в семье Анны, девушки, которая в числе немногих отнеслась к нему, как к человеку. Но господин Хеглунд, не позволяющий никому себе перечить, не собирается так легко расставаться со своей «собственностью»…

Режиссер: Ганс Альфредсон / Hans Alfredson
Актеры: Стеллан Скарсгард, Мария Йоханссон, Ганс Альфредсон, Пер Мирберг, Лена-Пиа Бернхардсон, Нильс Алрот, Ларс Амбл, Карл-Эйк Эриксон, Сесилия Уолтон, Уоллис Гран

Продолжительность: 01:43:02
Качество видео: DVDRip
Перевод: Одноголосый закадровый



Дата мировой премьеры: 12 февраля 1982

Видеокодек: Xvid
Битрейт видео: ~1827 kbps
Размер кадра: 720x432, 1.67:1, 25.000 fps
Аудиокодек: AC3 2.0
Битрейт аудио: 48 kHz, 192 kbps, CBR
Берлинский кинофестиваль, 1982 год

Победитель :

1. Серебряный Медведь за лучшую мужскую роль (Стеллан Скарсгард)
2. Специальная рекомендация Международной Католической организации в области кино (конкурсная программа)
3. Награда C.I.D.A.L.C.

Номинации :

1. Золотой Медведь
Код: выделить все
General
Complete name                            : D:\Мои документы\Den enfaldige mördaren.1982.DVDRip.avi
Format                                   : AVI
Format/Info                              : Audio Video Interleave
File size                                : 1.46 GiB
Duration                                 : 1h 43mn
Overall bit rate                         : 2 029 Kbps
Writing application                      : VirtualDubMod 1.5.10.3 | www.virtualdub-fr.org || (build 2550/release)
Writing library                          : VirtualDubMod build 2550/release

Video
ID                                       : 0
Format                                   : MPEG-4 Visual
Format profile                           : Advanced Simple@L5
Format settings, BVOP                    : 1
Format settings, QPel                    : No
Format settings, GMC                     : No warppoints
Format settings, Matrix                  : Custom
Codec ID                                 : XVID
Codec ID/Hint                            : XviD
Duration                                 : 1h 43mn
Bit rate                                 : 1 827 Kbps
Width                                    : 720 pixels
Height                                   : 432 pixels
Display aspect ratio                     : 1.667
Frame rate                               : 25.000 fps
Color space                              : YUV
Chroma subsampling                       : 4:2:0
Bit depth                                : 8 bits
Scan type                                : Progressive
Compression mode                         : Lossy
Bits/(Pixel*Frame)                       : 0.235
Stream size                              : 1.31 GiB (90%)
Writing library                          : XviD 73

Audio
ID                                       : 1
Format                                   : AC-3
Format/Info                              : Audio Coding 3
Mode extension                           : CM (complete main)
Format settings, Endianness              : Big
Codec ID                                 : 2000
Duration                                 : 1h 43mn
Bit rate mode                            : Constant
Bit rate                                 : 192 Kbps
Channel(s)                               : 2 channels
Channel positions                        : Front: L R
Sampling rate                            : 48.0 KHz
Bit depth                                : 16 bits
Compression mode                         : Lossy
Stream size                              : 141 MiB (9%)
Alignment                                : Split accross interleaves
Interleave, duration                     : 40 ms (1.00 video frame)
Interleave, preload duration             : 500 ms

Скриншоты:



Время раздачи: с 15:00 до 1:00
[NNM-Club.me]_Den enfaldige mördaren.1982.DVDRip.avi.torrent
 Торрент: Платиновая раздача  Зарегистрирован
 
Скачать


Примагнититься
 Зарегистрирован:   17 Май 2014 20:12:34
 Размер:   1,46 GB  (
 Рейтинг:   4,8 (Голосов: 14)
 Поблагодарили:   42
 Проверка:   Оформление проверено модератором 18 Май 2014 01:18:50
Как cкачать  ·  Как раздать  ·  Правильно оформить  ·  Поднять ратио!  
Топик был перенесен из форума Авторское кино в форум Старые Зарубежные Фильмы (HD*Rip/LQ, DVDRip, SATRip, VHSRip)



Исправил релиз - напиши ЛС MAG3131, дав ссылку на релиз.
Если нет ответа 24 часа - нажми на кнопку "Обратить внимание модераторов".
Показать сообщения:   
Начать новую тему   Ответить на тему    Торрент-трекер NNM-Club -> Классика кино и Старые фильмы до 90-х -> Старые Зарубежные Фильмы (HD*Rip/LQ, DVDRip, SATRip, VHSRip) Часовой пояс: GMT + 3
Страница 1 из 1