Классический форум-трекер
canvas not supported
Нас вместе: 4 079 096

Отряд «Антитеррор» / Подразделение / The Unit (2006) DVDRip (сезон 1, серии 1-13 из 13) (ДТВ)


 
 
RSS
Начать новую тему   Ответить на тему    Торрент-трекер NNM-Club -> Зарубежные сериалы
Автор Сообщение
I.N. ®
Стаж: 11 лет 11 мес.
Сообщений: 231
Ratio: 465,063
Раздал: 6,8 TB
Поблагодарили: 1331
100%
Откуда: Московская область
russia.gif
Отряд «Антитеррор» / Подразделение / The Unit (2006) DVDRip (сезон 1, серии 1-13 из 13) (ДТВ)
Год выпуска: 2006
Жанр: Боевик

Перевод: Дублированный (ДТВ)
Релиз группа: NovaFilm



Режиссер: Стефан Депауль
Актеры: Одри Мэри Андерсон, Дэннис Хэйсбер, Эбби Браммел, Реджина Тейлор, Мишель Ирби, Макс Мартини, Скотт Фолей, Роберт Патрик, Демона Барнс

Описание фильма:
Фильм повествует о секретной команде агентов Спецназа, работающих под прикрытием. О том, как они, рискуя своими жизнями, проводят спецоперации и защищают мирных жителей. Вместе с героями сериала зрители пересекут пустыни Африки, джунгли Индонезии и побывают в самых горячих точках мира. В процессе развития сюжета зрители увидят, как герои учатся доверять и полагаться друг на друга в опасных жизненных ситуациях. Вторая сюжетная линия фильма – женская. Это история семей главных героев, их переживаний и твердости духа, которые помогают им хранить тепло домашнего очага в отсутствии любимых мужей.

Продолжительность: ~00:42:00 серия
Качество видео: DVDRip
Сэмпл: Скачать
Сэмпл 1x01: Скачать
Сэмпл 1x02: Скачать

Все релизы сериала

Видеокодек: XVID
Битрейт видео: ~1023kbps (1x01), ~1050kbps (1x02),
Размер кадра: 672x368 (1x01), 576x320 (1x02), 608x336 (1x01-1x13)
Аудио 1: MP3 128kbps 2ch (Русский)
Аудио 2: MP3 114kbps 2ch (Английский)
Format : AVI
Format/Info : Audio Video Interleave
File size : 390 MiB
Duration : 42mn 32s
Overall bit rate mode : Variable
Overall bit rate : 1 283 Kbps
Writing application : VirtualDubMod 1.5.10.2 (build 2542/release)
Writing library : VirtualDubMod build 2542/release

Video
ID : 0
Format : MPEG-4 Visual
Format profile : Advanced Simple@L5
Format settings, BVOP : 1
Format settings, QPel : No
Format settings, GMC : No warppoints
Format settings, Matrix : Custom
Codec ID : XVID
Codec ID/Hint : XviD
Duration : 42mn 32s
Bit rate : 1 023 Kbps
Width : 672 pixels
Height : 368 pixels
Display aspect ratio : 1.85:1
Frame rate : 25.000 fps
Color space : YUV
Chroma subsampling : 4:2:0
Bit depth : 8 bits
Scan type : Progressive
Compression mode : Lossy
Bits/(Pixel*Frame) : 0.165
Stream size : 311 MiB (80%)
Writing library : XviD 1.2.0.dev47 (UTC 2006-11-01)

Audio #1
ID : 1
Format : MPEG Audio
Format version : Version 1
Format profile : Layer 3
Mode : Joint stereo
Mode extension : MS Stereo
Codec ID : 55
Codec ID/Hint : MP3
Duration : 42mn 32s
Bit rate mode : Constant
Bit rate : 128 Kbps
Channel(s) : 2 channels
Sampling rate : 48.0 KHz
Compression mode : Lossy
Stream size : 38.9 MiB (10%)
Alignment : Aligned on interleaves
Interleave, duration : 40 ms (1.00 video frame)
Interleave, preload duration : 504 ms

Audio #2
ID : 2
Format : MPEG Audio
Format version : Version 1
Format profile : Layer 3
Mode : Joint stereo
Mode extension : MS Stereo
Codec ID : 55
Codec ID/Hint : MP3
Duration : 42mn 32s
Bit rate mode : Variable
Bit rate : 114 Kbps
Nominal bit rate : 128 Kbps
Channel(s) : 2 channels
Sampling rate : 48.0 KHz
Compression mode : Lossy
Stream size : 34.8 MiB (9%)
Alignment : Aligned on interleaves
Interleave, duration : 24 ms (0.60 video frame)
Interleave, preload duration : 161 ms
Writing library : LAME3.97
Encoding settings : -m j -V 4 -q 2 -lowpass 17 --abr 128
Format : AVI
Format/Info : Audio Video Interleave
File size : 389 MiB
Duration : 41mn 34s
Overall bit rate mode : Variable
Overall bit rate : 1 310 Kbps
Writing application : VirtualDubMod 1.5.10.2 (build 2542/release)
Writing library : VirtualDubMod build 2542/release

Video
ID : 0
Format : MPEG-4 Visual
Format profile : Advanced Simple@L5
Format settings, BVOP : 1
Format settings, QPel : No
Format settings, GMC : No warppoints
Format settings, Matrix : Custom
Codec ID : XVID
Codec ID/Hint : XviD
Duration : 41mn 34s
Bit rate : 1 050 Kbps
Width : 576 pixels
Height : 320 pixels
Display aspect ratio : 16:9
Frame rate : 25.000 fps
Color space : YUV
Chroma subsampling : 4:2:0
Bit depth : 8 bits
Scan type : Progressive
Compression mode : Lossy
Bits/(Pixel*Frame) : 0.228
Stream size : 312 MiB (80%)
Writing library : XviD 1.2.0.dev47 (UTC 2006-11-01)

Audio #1
ID : 1
Format : MPEG Audio
Format version : Version 1
Format profile : Layer 3
Mode : Joint stereo
Mode extension : MS Stereo
Codec ID : 55
Codec ID/Hint : MP3
Duration : 41mn 34s
Bit rate mode : Constant
Bit rate : 128 Kbps
Channel(s) : 2 channels
Sampling rate : 48.0 KHz
Compression mode : Lossy
Stream size : 38.1 MiB (10%)
Alignment : Aligned on interleaves
Interleave, duration : 40 ms (1.00 video frame)
Interleave, preload duration : 504 ms

Audio #2
ID : 2
Format : MPEG Audio
Format version : Version 1
Format profile : Layer 3
Mode : Joint stereo
Mode extension : MS Stereo
Codec ID : 55
Codec ID/Hint : MP3
Duration : 41mn 34s
Bit rate mode : Variable
Bit rate : 114 Kbps
Nominal bit rate : 128 Kbps
Channel(s) : 2 channels
Sampling rate : 48.0 KHz
Compression mode : Lossy
Stream size : 33.8 MiB (9%)
Alignment : Aligned on interleaves
Interleave, duration : 24 ms (0.60 video frame)
Interleave, preload duration : 536 ms
Writing library : LAME3.97
Encoding settings : -m j -V 4 -q 2 -lowpass 17 --abr 128
Format : AVI
Format/Info : Audio Video Interleave
File size : 389 MiB
Duration : 41mn 31s
Overall bit rate mode : Variable
Overall bit rate : 1 311 Kbps
Writing application : VirtualDubMod 1.5.10.2 (build 2542/release)
Writing library : VirtualDubMod build 2542/release

Video
ID : 0
Format : MPEG-4 Visual
Format profile : Advanced Simple@L5
Format settings, BVOP : 1
Format settings, QPel : No
Format settings, GMC : No warppoints
Format settings, Matrix : Custom
Codec ID : XVID
Codec ID/Hint : XviD
Duration : 41mn 31s
Bit rate : 1 052 Kbps
Width : 608 pixels
Height : 336 pixels
Display aspect ratio : 16:9
Frame rate : 25.000 fps
Color space : YUV
Chroma subsampling : 4:2:0
Bit depth : 8 bits
Scan type : Progressive
Compression mode : Lossy
Bits/(Pixel*Frame) : 0.206
Stream size : 313 MiB (80%)
Writing library : XviD 1.2.0.dev47 (UTC 2006-11-01)

Audio #1
ID : 1
Format : MPEG Audio
Format version : Version 1
Format profile : Layer 3
Mode : Joint stereo
Mode extension : MS Stereo
Codec ID : 55
Codec ID/Hint : MP3
Duration : 41mn 31s
Bit rate mode : Constant
Bit rate : 128 Kbps
Channel(s) : 2 channels
Sampling rate : 48.0 KHz
Compression mode : Lossy
Stream size : 38.0 MiB (10%)
Alignment : Aligned on interleaves
Interleave, duration : 40 ms (1.00 video frame)
Interleave, preload duration : 504 ms

Audio #2
ID : 2
Format : MPEG Audio
Format version : Version 1
Format profile : Layer 3
Mode : Joint stereo
Mode extension : MS Stereo
Codec ID : 55
Codec ID/Hint : MP3
Duration : 41mn 31s
Bit rate mode : Variable
Bit rate : 113 Kbps
Nominal bit rate : 128 Kbps
Channel(s) : 2 channels
Sampling rate : 48.0 KHz
Compression mode : Lossy
Stream size : 33.6 MiB (9%)
Alignment : Aligned on interleaves
Interleave, duration : 24 ms (0.60 video frame)
Interleave, preload duration : 163 ms
Writing library : LAME3.97
Encoding settings : -m j -V 4 -q 2 -lowpass 17 --abr 128
Скриншоты:


Время раздачи: 24/7

Реставрация от: Ahmad_Kasseer
the_unit_s1_e01_13[nnm-club.ru].torrent
 Торрент: Платиновая раздача  Зарегистрирован
 
Скачать


 Зарегистрирован:   27 Апр 2008 03:08:54
 Размер:   4,95 GB  (
 Рейтинг:   4,6 (Голосов: 55)
 Поблагодарили:   203
 Проверка:   Оформление проверено модератором 27 Апр 2008 18:31:36
Как cкачать  ·  Как раздать  ·  Правильно оформить  ·  Поднять ратио!  
Загрузка...
Rinswind
Uploader 500+
Стаж: 12 лет 6 мес.
Сообщений: 564
Ratio: 273,399
Раздал: 627,7 TB
Поблагодарили: 3015
100%
Откуда: Оттуда (с)
ussr.gif
Спасибо!

_________________
Seeding 24/7
See you next time
imedvedic2
Стаж: 9 лет
Сообщений: 1
Ratio: 1,312
3.08%
Товарищи! Подскажите! А где можно саундтрек найти к данному замечательному сериалу?
Заранее спасибо за ответ!
leshij1969
Стаж: 9 лет 3 мес.
Сообщений: 70
Ratio: 4,168
100%
latvia.gif
СПАСИБО!!! и сериал хороший и релизёр молодец!!!
I.N. ®
Стаж: 11 лет 11 мес.
Сообщений: 231
Ratio: 465,063
Раздал: 6,8 TB
Поблагодарили: 1331
100%
Откуда: Московская область
russia.gif
leshij1969 писал(а): Перейти к сообщению
СПАСИБО!!! и сериал хороший и релизёр молодец!!!

Спасибо. Приятного просмотра.
leshij1969
Стаж: 9 лет 3 мес.
Сообщений: 70
Ratio: 4,168
100%
latvia.gif
спасибо релизёру сериал понравился надо глянуть дальше
leshij1969
Стаж: 9 лет 3 мес.
Сообщений: 70
Ratio: 4,168
100%
latvia.gif
Большое спасибо!!! понравилось
Показать сообщения:   
Начать новую тему   Ответить на тему    Торрент-трекер NNM-Club -> Зарубежные сериалы Часовой пояс: GMT + 3
Страница 1 из 1