Классический форум-трекер
canvas not supported
Нас вместе: 4 101 090

Mobile Suit Gundam Seed C.E.73: Stargazer | Kidou Senshi Gundam Seed C.E. 73 Stargazer | Мобильный воин ГАНДАМ: Старгейзер [2006; ONA; 3 эп.] BDRip 720p Hi10P raw


 
 
RSS
Начать новую тему   Ответить на тему    Торрент-трекер NNM-Club -> Архив торрентов -> Архив Аниме
Автор Сообщение
loki ®
Стаж: 9 лет 2 мес.
Сообщений: 4729
Ratio: 62,797
Поблагодарили: 37350
100%
Откуда: Днепр
roody.gif
機動戦士ガンダムSEED C.E.73 -STARGAZER-
Mobile Suit Gundam Seed C.E.73: Stargazer
Kidou Senshi Gundam SEED C.E. 73 Stargazer
Мобильный воин ГАНДАМ: Старгейзер


Жанр: приключения, фантастика, меха
Тип: ONA
Продолжительность: 3 эп., 15 мин.
Выпуск: c 14.07.2006 по 29.09.2006
Производство/студия: Sunrise
Автор оригинала: Томино Ёсиюки
Режиссер: Нисидзава Сусуму
Качество видео: BDRip
Энкод: QTS
Контейнер: MKV
Видео: MPEG4/AVC (Hi10P)
Битрейт видео: 5504 kbps; 23.976 fps
Размер кадра: 1270x720
Аудио:
JAP; AAC; 48.0 KHz; 2.0ch; 271 kbps
Субтитры:
RUS; Hiroki & g[un]man & Тюлень SRT (ext)
Описание:
Во многом этот мини-сериал принимает эстафету у знаменитых OVA-сериалов, посвящённых UC Вселенной. Снова - краткая история человека, затянутого в водоворот войны. Снова - жестокий и неприкрытый оскал зверя, которого мы назвали "война".
Это очень печальный сериал. Здесь нет душещипательных моментов, многочасового плача. Во многом события показываются сквозь призму Свена, немного отстранённо, но оттого не менее страшно. И любой думающий человек поймёт, что хотели донести до нас авторы.
Этот сериал - предупреждение людям. Предупреждение о том, что война пожирает все надежды и мечты людей, ломает судьбы и разрушает жизни. И маленький мечтатель, юный астроном Свен вырастает в холодного, отчуждённого военного Свена, что не проливает и слезы по погибшим товарищам. И мечта о космосе, о звёздах превращается в зарево терорристических взрывов, в которых гибнут ни в чём не повинные люди.
И всё же маленькая надежда остаётся - ведь война пожирает сама себя, ведь есть ещё люди, способные протянуть руку помощи врагу. И кто знает, может бывают чудеса, и даже самые точные расчёты спасуют перед желанием людей жить?
© Psalm of Evil, World Art
Код:
Общее
Полное имя                               : [QTS] Mobile Suit Gundam SEED C.E.73 -STARGAZER- STAGE1-3 (BD H264 1280x720 AAC 2.0+2.0).mp4
Формат                                   : MPEG-4
Профиль формата                          : Base Media
Идентификатор кодека                     : isom
Размер файла                             : 2,10 Гбайт
Продолжительность                        : 50 м.
Режим общего битрейта                    : Переменный
Общий поток                              : 5993 Кбит/сек
Дата кодирования                         : UTC 2013-03-24 17:28:44
Дата пометки                             : UTC 2013-03-24 17:28:44

Видео
Идентификатор                            : 1
Формат                                   : AVC
Формат/Информация                        : Advanced Video Codec
Профиль формата                          : High 10@L5.0
Параметр CABAC формата                   : Да
Параметр ReFrames формата                : 10 кадров
Идентификатор кодека                     : avc1
Идентификатор кодека/Информация          : Advanced Video Coding
Продолжительность                        : 50 м.
Битрейт                                  : 5500 Кбит/сек
Максимальный битрейт                     : 49,4 Мбит/сек
Ширина                                   : 1280 пикселей
Высота                                   : 720 пикселей
Соотношение сторон                       : 16:9
Режим частоты кадров                     : Переменный
Частота кадров                           : 24,020 кадра/сек
Минимальная частота кадров               : 17,982 кадров/сек
Максимальная частота кадров              : 29,970 кадров/сек
Цветовое пространство                    : YUV
Субдискретизация насыщенности            : 4:2:0
Битовая глубина                          : 10 бит
Тип развёртки                            : Прогрессивная
Бит/(Пиксели*Кадры)                      : 0.248
Размер потока                            : 1,93 Гбайт (92%)
Заголовок                                : [QTS] Mobile Suit Gundam SEED C.E.73 -STARGAZER- STAGE1-3_Blu-ray Disc
Библиотека кодирования                   : x264 core 130 r2274+704+39 8b99b60 tMod [10-bit@all X86_64]
Настройки программы                      : cabac=1 / ref=10 / deblock=1:0:0 / analyse=0x3:0x133 / me=umh / subme=11 / psy=1 / fade_compensate=0.00 / psy_rd=1.00:0.00 / mixed_ref=1 / me_range=28 / chroma_me=1 / trellis=2 / 8x8dct=1 / cqm=0 / deadzone=21,11 / fast_pskip=0 / chroma_qp_offset=-2 / threads=9 / lookahead_threads=1 / sliced_threads=0 / nr=0 / decimate=0 / interlaced=0 / bluray_compat=0 / constrained_intra=0 / fgo=0 / bframes=5 / b_pyramid=2 / b_adapt=2 / b_bias=0 / direct=3 / weightb=1 / open_gop=0 / weightp=2 / keyint=240 / keyint_min=24 / scenecut=40 / intra_refresh=0 / rc_lookahead=40 / rc=2pass / mbtree=1 / bitrate=5500 / ratetol=1.0 / qcomp=0.60 / qpmin=0 / qpmax=51 / qpstep=4 / cplxblur=20.0 / qblur=0.5 / ip_ratio=1.40 / aq=4:1.00
Язык                                     : Japanese
Дата кодирования                         : UTC 2013-03-24 17:26:58
Дата пометки                             : UTC 2013-03-24 17:28:47
Основные цвета                           : BT.709
Характеристики трансфера                 : BT.709
Коэффициенты матрицы                     : BT.709

Аудио #1
Идентификатор                            : 2
Формат                                   : AAC
Формат/Информация                        : Advanced Audio Codec
Профиль формата                          : LC
Идентификатор кодека                     : 40
Продолжительность                        : 50 м.
Вид битрейта                             : Переменный
Битрейт                                  : 271 Кбит/сек
Максимальный битрейт                     : 378 Кбит/сек
Каналы                                   : 2 канала
Расположение каналов                     : Front: L R
Частота                                  : 48,0 КГц
Метод сжатия                             : С потерями
Размер потока                            : 97,3 Мбайт (5%)
Заголовок                                : Japanese Audio 2.0ch
Язык                                     : Japanese
Дата кодирования                         : UTC 2013-03-23 16:55:35
Дата пометки                             : UTC 2013-03-24 17:28:47

Аудио #2
Идентификатор                            : 3
Формат                                   : AAC
Формат/Информация                        : Advanced Audio Codec
Профиль формата                          : LC
Идентификатор кодека                     : 40
Продолжительность                        : 50 м.
Вид битрейта                             : Переменный
Битрейт                                  : 212 Кбит/сек
Максимальный битрейт                     : 321 Кбит/сек
Каналы                                   : 2 канала
Расположение каналов                     : Front: L R
Частота                                  : 48,0 КГц
Метод сжатия                             : С потерями
Размер потока                            : 76,3 Мбайт (4%)
Заголовок                                : Commentary Audio 2.0ch
Язык                                     : Japanese
Дата кодирования                         : UTC 2013-03-23 16:55:35
Дата пометки                             : UTC 2013-03-24 17:28:47
Код:
File: [QTS] Mobile Suit Gundam SEED C.E.73 -STARGAZER- STAGE1-3 (BD H264 1280x720 AAC 2.0+2.0).mp4
 Duration: 00:50:15 (3015.06)
 Track #1: video ([QTS] Mobile Suit Gundam SEED C.E.73 -STARGAZER- STAGE1-3_Blu-ray Disc)
  lang: ja (2)
  codc: avc1 -> H264/AVC (22)
  reso: 1280x720 -> 16:9
  fram: vfr
  rate: 5504 kbps (5504.08)
  dura: 00:50:15 (3015.01)
  size: 0.00 B (0)
 Track #2: audio (Japanese Audio 2.0ch)
  lang: ja -> Japanese (2)
  codc: A_AAC/MPEG4/LC -> AAC (9)
  chan: 2 -> Stereo
  samp: 48000 Hz
  rate: 271 kbps (270.85)
  dura: 00:50:15 (3015.06)
  size: 0.00 B (0)
 Track #3: audio (Commentary Audio 2.0ch)
  lang: ja -> Japanese (2)
  codc: A_AAC/MPEG4/LC -> AAC (9)
  chan: 2 -> Stereo
  samp: 48000 Hz
  rate: 212 kbps (212.17)
  dura: 00:50:15 (3015.06)
  size: 0.00 B (0)
 Sizes: (check sanity)
  disk: 2.10 GB (2258524210)
  trac: 0.00 B (0) [based on track size]
  bitr: 2.10 GB (2256396934) [based on bitrate]
  tdif: 2.10 GB (2258524210) 100.00%
  bdif: 2.03 MB (2127275) 0.09%

Official page

ANN || AniDB || MAL || World Art




Время раздачи: 24/7
[NNM-Club.me]_[QTS] Mobile Suit Gundam SEED C.E.73 -STARGAZER-.torrent
 Торрент:   Зарегистрирован
 
Зарегистрируйтесь и скачайте торрент!
11 KB
Free Leech
Примагнититься
 Зарегистрирован:   21 Май 2014 15:29:51
 Размер:   2,1 GB  (
 Рейтинг:   4,4 (Голосов: 14)
 Поблагодарили:   11
 Проверка:   Оформление проверено модератором 21 Май 2014 19:32:08
Как cкачать  ·  Как раздать  ·  Правильно оформить  ·  Поднять ратио!  
Топик был перенесен из форума HD и BDRip в форум Архив Аниме

Причина переноса: Seeder last seen: 2015-11-18

Исправил релиз - напиши ЛС loki, дав ссылку на релиз.
Если нет ответа 24 часа - нажми на кнопку "Обратить внимание модераторов".
Показать сообщения:   
Начать новую тему   Ответить на тему    Торрент-трекер NNM-Club -> Архив торрентов -> Архив Аниме Часовой пояс: GMT + 3
Страница 1 из 1