Классический форум-трекер
canvas not supported
Нас вместе: 4 117 945

Приключения барона Мюнхаузена / The Adventures of Baron Munchausen (1988) BDRip [720p]


 
 
RSS
Начать новую тему   Ответить на тему    Торрент-трекер NNM-Club -> Классика кино и Старые фильмы до 90-х -> Зарубежная Классика (HD, UHD, UHD-LQ, 3D)
Автор Сообщение
Amentia ®
Стаж: 9 лет 6 мес.
Сообщений: 403
Ratio: 166,059
Раздал: 35,33 TB
Поблагодарили: 29109
100%
Откуда: Третий камень от Солнца
ussr.gif
Приключения барона Мюнхаузена / The Adventures of Baron Munchausen (1988) BDRip [720p]
Страны: Великобритания, Италия
Год выпуска: 1988
Жанр: Приключения, Фэнтези, Комедия

Описание фильма:
Единственный, кто знает всю правду о Мюнхгаузене — сам барон. Легендарный герой рассказывает историю своих невероятных приключений.
Но неужели он действительно летал на раскаленном пушечном ядре, сражался с трехголовым грифоном, путешествовал на Луну, видел обнаженную Венеру, выходящую из морской раковины, и в конце концов, столкнулся нос к носу с самой Смертью? В это невозможно поверить… но разве знаменитый Мюнхгаузен может врать?

Режиссер: Терри Гиллиам
Актеры: Сара Полли, Эрик Айдл, Валентина Кортезе, Билл Пэтерсон, Ума Турман, Элисон Стедмэн, Стинг, Джон Невилл, Робин Уильям, Оливер Рид, Джонатан Прайс

Продолжительность: 02:06:17
Качество видео: BDRip
Перевод: Многоголосый закадровый x2 + Авторский одноголосый (Ю.Живов) + Украинский дубляж



Дата мировой премьеры: 8 декабря 1988
Дата выхода DVD релиза: 24 апреля 2008

Видеокодек: MPEG-4 AVC/H.264
Битрейт видео: ~8360 Kbps
Размер кадра: 1280x688
Аудио:
#1: Русский: 48 kHz, AC3, 2/0 (L,R), ~192.00 kbps avg |Одноголосый закадровый, Ю.Живов|
#2: Русский: AC3, 6ch, 448 kbps (R5)
#3: Русский: AC3, 2ch, 192 kbps (Позитив-мультимедиа)
#4: Украинский: AC3, 6ch, 384 kbps (Новый канал)
#5: Английский (оригинал): AC3, 6ch, 640 kbps
Фильм очень необычный. Честно говоря, я его в первый раз не понял, не въехал, как говорится, и мне он тогда не очень понравился. Зато теперь, когда я снова его пересмотрел, думаю, что более красочной и умной сказки я не видел.

Причудливое смешение современности и истории, юмора и страха, приключений и фантатики, европейского и американского, слияние жанров и переплетение различных литературных произведений — все это Гиллиам собрал вместе, помножил на нехилый бюджет и получил шедевральный сказочный коктейль, в котором завораживает каждый кадр!

Да, в фильме нет супернавороченных спецэффектов, но они и не нужны — главное иметь фантазию и, как говорил, сам Мюнхгаузен — верить в то, что видишь! Я поверил и получил огромное удовольствие.

Впрочем, как экранизация фильм не удался — Гиллиам взял роман Распе только за первооснову, а сам фильм — плод исключительно егго сценаристского воображения и режиссерского видения. К тому же Гиллиам собрал блестящий актерский ансамбль и сделал сказку для всех, где дети смогут смотреть на приключения, а взрослые смогут подумать о прошлом и будущем.

Это умный и сатирический фильм. Впрочем, юмора там тоже очень много, хотя на первый взгляд его не видно, на самом деле, чуть ли не половина фраз если не комично, то точно издевательски саркастична. Например, слова великана: «Сокровищ у меня нет! Я его спустил — отдал на благотворительность!» Или: «Покидаем корабль!
- А по-моему корабль покидает нас!»

Шуток, подобных этим, в картине навалом, правдо опять же — не все смогли в них врубиться и этот бесподобный фильм провалился в прокате… Не поняли люди.

Об актерах хочется сказать отдельно: сам барон — просто супер! Вся его престарелая команда тоже безупречна, особенно Эрик Айдл, весь фильм выдававший шутки одну за другой. Еще есть чудесные эпизоды с Робином Уильямсом, к тому же это единственный фильм, где Ума Турман действительно выглядит привлекательно! :)

Еще я заметил, что по визуальному ряду этот фильм здорово напоминает «Куда приводят мечты», яркость и художественное оформление у обоих лент просто праздник для глаз! Костюмы, декорации, музыка — все великолепно, хоть и кукольно, неестественно. Еще бы! Ведь это сказка…
(с) Боб

--------------------
Изумительный фильм! Потрясающая сказка, блещущая фантазией и выдумкой!

Фильм очень необычный. Честно говоря, я его в первый раз не понял, не въехал, как говорится, и мне он тогда не очень понравился. Зато теперь, когда я снова его пересмотрел, думаю, что более красочной и умной сказки я не видел.

Причудливое смешение современности и истории, юмора и страха, приключений и фантатики, европейского и американского, слияние жанров и переплетение различных литературных произведений — все это Гиллиам собрал вместе, помножил на нехилый бюджет и получил шедевральный сказочный коктейль, в котором завораживает каждый кадр!

Да, в фильме нет супернавороченных спецэффектов, но они и не нужны — главное иметь фантазию и, как говорил, сам Мюнхгаузен — верить в то, что видишь! Я поверил и получил огромное удовольствие.

Впрочем, как экранизация фильм не удался — Гиллиам взял роман Распе только за первооснову, а сам фильм — плод исключительно егго сценаристского воображения и режиссерского видения. К тому же Гиллиам собрал блестящий актерский ансамбль и сделал сказку для всех, где дети смогут смотреть на приключения, а взрослые смогут подумать о прошлом и будущем.

Это умный и сатирический фильм. Впрочем, юмора там тоже очень много, хотя на первый взгляд его не видно, на самом деле, чуть ли не половина фраз если не комично, то точно издевательски саркастична. Например, слова великана: «Сокровищ у меня нет! Я его спустил — отдал на благотворительность!» Или: «Покидаем корабль!
- А по-моему корабль покидает нас!»

Шуток, подобных этим, в картине навалом, правдо опять же — не все смогли в них врубиться и этот бесподобный фильм провалился в прокате… Не поняли люди.

Об актерах хочется сказать отдельно: сам барон — просто супер! Вся его престарелая команда тоже безупречна, особенно Эрик Айдл, весь фильм выдававший шутки одну за другой. Еще есть чудесные эпизоды с Робином Уильямсом, к тому же это единственный фильм, где Ума Турман действительно выглядит привлекательно! :)

Еще я заметил, что по визуальному ряду этот фильм здорово напоминает «Куда приводят мечты», яркость и художественное оформление у обоих лент просто праздник для глаз! Костюмы, декорации, музыка — все великолепно, хоть и кукольно, неестественно. Еще бы! Ведь это сказка…
(с) Vita Nostra
Код: выделить все

Общее
Уникальный идентификатор                 : 247489672283334125149587265245735777296 (0xBA30C6EE908465A5ACF5999DD0577410)
Полное имя                               : F:\razd\Prikluchenija.barona.Munhauzena.1988.BDRip720p.mkv
Формат                                   : Matroska
Версия формата                           : Version 4 / Version 2
Размер файла                             : 9,01 Гбайт
Продолжительность                        : 2 ч. 6 м.
Общий поток                              : 10,2 Мбит/сек
Название фильма                          : The Adventures of Baron Munchausen (1988)
Дата кодирования                         : UTC 2014-03-24 03:26:50
Программа кодирования                    : mkvmerge v6.5.0 ('Isn't she lovely') built on Oct 20 2013 12:50:05
Библиотека кодирования                   : libebml v1.3.0 + libmatroska v1.4.1
Attachment                               : Yes / Yes / Yes

Видео
Идентификатор                            : 1
Формат                                   : AVC
Формат/Информация                        : Advanced Video Codec
Профиль формата                          : High@L5.1
Параметр CABAC формата                   : Да
Параметр ReFrames формата                : 5 кадров
Идентификатор кодека                     : V_MPEG4/ISO/AVC
Продолжительность                        : 2 ч. 6 м.
Битрейт                                  : 8360 Кбит/сек
Ширина                                   : 1280 пикселей
Высота                                   : 688 пикселей
Соотношение сторон                       : 1,85:1
Режим частоты кадров                     : Постоянный
Частота кадров                           : 23,976 кадра/сек
Цветовое пространство                    : YUV
Субдискретизация насыщенности            : 4:2:0
Битовая глубина                          : 8 бит
Тип развёртки                            : Прогрессивная
Бит/(Пиксели*Кадры)                      : 0.396
Размер потока                            : 7,20 Гбайт (80%)
Заголовок                                : Английская, оригинал
Библиотека кодирования                   : x264 core 59 r807 08b5132
Настройки программы                      : cabac=1 / ref=5 / deblock=1:0:0 / analyse=0x3:0x113 / me=umh / subme=7 / brdo=1 / mixed_ref=1 / me_range=16 / chroma_me=1 / trellis=1 / 8x8dct=1 / cqm=0 / deadzone=21,11 / chroma_qp_offset=0 / threads=6 / nr=0 / decimate=1 / mbaff=0 / bframes=3 / b_pyramid=1 / b_adapt=1 / b_bias=0 / direct=1 / wpredb=1 / bime=1 / keyint=250 / keyint_min=25 / scenecut=40(pre) / rc=2pass / bitrate=8360 / ratetol=1.0 / rceq='blurCplx^(1-qComp)' / qcomp=1.00 / qpmin=10 / qpmax=51 / qpstep=4 / cplxblur=20.0 / qblur=0.5 / ip_ratio=1.40 / pb_ratio=1.30 / aq=2:1.00
Язык                                     : English
Default                                  : Да
Forced                                   : Нет

Аудио #1
Идентификатор                            : 2
Формат                                   : AC-3
Формат/Информация                        : Audio Coding 3
Расширение режима                        : CM (complete main)
Параметр Endianness формата              : Big
Идентификатор кодека                     : A_AC3
Продолжительность                        : 2 ч. 6 м.
Вид битрейта                             : Постоянный
Битрейт                                  : 448 Кбит/сек
Каналы                                   : 6 каналов
Расположение каналов                     : Front: L C R, Side: L R, LFE
Частота                                  : 48,0 КГц
Битовая глубина                          : 16 бит
Метод сжатия                             : С потерями
Размер потока                            : 405 Мбайт (4%)
Заголовок                                : Русская, R5, AC3, 6ch, 448 kbps
Язык                                     : Russian
Default                                  : Да
Forced                                   : Нет

Аудио #2
Идентификатор                            : 3
Формат                                   : AC-3
Формат/Информация                        : Audio Coding 3
Расширение режима                        : CM (complete main)
Параметр Endianness формата              : Big
Идентификатор кодека                     : A_AC3
Продолжительность                        : 2 ч. 6 м.
Вид битрейта                             : Постоянный
Битрейт                                  : 192 Кбит/сек
Каналы                                   : 2 канала
Расположение каналов                     : Front: L R
Частота                                  : 48,0 КГц
Битовая глубина                          : 16 бит
Метод сжатия                             : С потерями
Размер потока                            : 173 Мбайт (2%)
Заголовок                                : Русская, Позитив-мультимедиа, AC3, 2ch, 192 kbps
Язык                                     : Russian
Default                                  : Нет
Forced                                   : Нет

Аудио #3
Идентификатор                            : 4
Формат                                   : AC-3
Формат/Информация                        : Audio Coding 3
Расширение режима                        : CM (complete main)
Параметр Endianness формата              : Big
Идентификатор кодека                     : A_AC3
Продолжительность                        : 2 ч. 6 м.
Вид битрейта                             : Постоянный
Битрейт                                  : 384 Кбит/сек
Каналы                                   : 6 каналов
Расположение каналов                     : Front: L C R, Side: L R, LFE
Частота                                  : 48,0 КГц
Битовая глубина                          : 16 бит
Метод сжатия                             : С потерями
Размер потока                            : 347 Мбайт (4%)
Заголовок                                : Украинская, Новый канал, AC3, 6ch, 384 kbps
Язык                                     : Ukrainian
Default                                  : Нет
Forced                                   : Нет

Аудио #4
Идентификатор                            : 5
Формат                                   : AC-3
Формат/Информация                        : Audio Coding 3
Расширение режима                        : CM (complete main)
Параметр Endianness формата              : Big
Идентификатор кодека                     : A_AC3
Продолжительность                        : 2 ч. 6 м.
Вид битрейта                             : Постоянный
Битрейт                                  : 640 Кбит/сек
Каналы                                   : 6 каналов
Расположение каналов                     : Front: L C R, Side: L R, LFE
Частота                                  : 48,0 КГц
Битовая глубина                          : 16 бит
Метод сжатия                             : С потерями
Размер потока                            : 578 Мбайт (6%)
Заголовок                                : Английская, оригинал, AC3, 6ch, 640 kbps
Язык                                     : English
Default                                  : Нет
Forced                                   : Нет

Аудио #5
Идентификатор                            : 6
Формат                                   : AC-3
Формат/Информация                        : Audio Coding 3
Расширение режима                        : CM (complete main)
Параметр Endianness формата              : Big
Идентификатор кодека                     : A_AC3
Продолжительность                        : 2 ч. 6 м.
Вид битрейта                             : Постоянный
Битрейт                                  : 192 Кбит/сек
Каналы                                   : 2 канала
Расположение каналов                     : Front: L R
Частота                                  : 48,0 КГц
Битовая глубина                          : 16 бит
Метод сжатия                             : С потерями
Размер потока                            : 173 Мбайт (2%)
Заголовок                                : AC3 2.0 192k Givov
Язык                                     : Russian
Default                                  : Нет
Forced                                   : Нет
Скриншоты:


Время раздачи: круглосуточно

Приключения барона Мюнхаузена / The Adventures of Baron Munchausen (1988) на NNM-club
[NNM-Club.me]_Prikluchenija.barona.Munhauzena.1988.BDRip720p.mkv.torrent
 Торрент: Платиновая раздача  Зарегистрирован
 
Скачать


Примагнититься
 Зарегистрирован:   22 Май 2014 07:16:21
 Размер:   9,01 GB  (
 Рейтинг:   4,9 (Голосов: 62)
 Поблагодарили:   238
 Проверка:   Оформление проверено модератором 23 Май 2014 00:08:25
Как cкачать  ·  Как раздать  ·  Правильно оформить  ·  Поднять ратио!  
LiLOF
Стаж: 7 лет 3 мес.
Сообщений: 957
Ratio: 0,827
Поблагодарили: 9
0.11%
Ума Турман-18!
broccol
Стаж: 10 лет 4 мес.
Сообщений: 3
Ratio: 1,796
100%
Откуда: Питер
russia.gif
Фильм - шедевр. Обязателен для семейного просмотра.
Джонатан Прайс, как всегда, хорош в образе негодяя.
Показать сообщения:   
Начать новую тему   Ответить на тему    Торрент-трекер NNM-Club -> Классика кино и Старые фильмы до 90-х -> Зарубежная Классика (HD, UHD, UHD-LQ, 3D) Часовой пояс: GMT + 3
Страница 1 из 1