Классический форум-трекер
canvas not supported
Нас вместе: 4 093 865

Открытый перелом / Compound Fracture (2013) WEB-DLRip


 
 
RSS
Начать новую тему   Ответить на тему    Торрент-трекер NNM-Club -> Зарубежное кино -> Зарубежные Фильмы (HD*Rip/LQ, DVDRip, SATRip, VHSRip)
Автор Сообщение
Dreemmer ®
Стаж: 7 лет
Сообщений: 938
Ratio: 1429,269
Поблагодарили: 106029
100%
Открытый перелом / Compound Fracture (2013) WEB-DLRip
Год выпуска: 2013
Производство: США | Mane Entertainment
Жанр: Ужасы, Триллер

Режиссер: Энтони Дж. Рикерт-Эпстин
Актеры: Тайлер Мэйн, Мьюз Уотсон, Дерек Мирс, Лесли Истербрук, Рене Гирлингс, Алекс Саксон, Сьюзэн Анджело, Джелли Хоуи, Дэниэл Робак, Тодд Фармер

Описание фильма:
Сюжет фильма о том, как на глазах у своего сына отец убивает мать. Паренька берет в опеку родной дядя с женой и они вместе уезжают жить к дедушке, пытаясь наладить новый быт. Но все не так просто дедушка не совсем вменяем и здесь же появляется призрак его брата убийцы. Призрак хочет уничтожить всех членов семьи.

Перевод: Двуголосый закадровый, любительский
Озвучка / Автор перевода: DeadSno & den904
Субтитры: Отсутствуют



Дата мировой премьеры: 13 мая 2014 (США)

Продолжительность: 01:30:59
Качество видео: WEB-DLRip

Видео: 688x288 (2.40:1), 23.976 fps, XviD ~1006 kbps avg, 0.212 bit/pixel
Аудио: 48 kHz, MPEG Layer 3, 2 ch, 128.00 kbps
Сэмпл: Скачать
Код:
General
Complete name                  : D:\фильмы\Otkrytyj.perelom.2013.HDRip.avi
Format                         : AVI
Format/Info                    : Audio Video Interleave
File size                      : 744 MiB
Duration                       : 1h 30mn
Overall bit rate               : 1 143 Kbps
Movie name                     : Otkrytyj.Perelom.HDRip
Writing application            : VirtualDubMod 1.5.10.2 (build 2540/release)

Video
ID                             : 0
Format                         : MPEG-4 Visual
Format profile                 : Advanced Simple@L5
Format settings, BVOP          : Yes
Format settings, QPel          : No
Format settings, GMC           : No warppoints
Format settings, Matrix        : Default (MPEG)
Codec ID                       : XVID
Codec ID/Hint                  : XviD
Duration                       : 1h 30mn
Bit rate                       : 1 006 Kbps
Width                          : 688 pixels
Height                         : 288 pixels
Display aspect ratio           : 2.40:1
Frame rate                     : 23.976 fps
Color space                    : YUV
Chroma subsampling             : 4:2:0
Bit depth                      : 8 bits
Scan type                      : Progressive
Compression mode               : Lossy
Bits/(Pixel*Frame)             : 0.212
Stream size                    : 655 MiB (88%)
Writing library                : XviD 1.2.0.dev47 (UTC 2006-11-01)

Audio
ID                             : 1
Format                         : MPEG Audio
Format version                 : Version 1
Format profile                 : Layer 3
Codec ID                       : 55
Codec ID/Hint                  : MP3
Duration                       : 1h 30mn
Bit rate mode                  : Constant
Bit rate                       : 128 Kbps
Channel(s)                     : 2 channels
Sampling rate                  : 48.0 KHz
Compression mode               : Lossy
Stream size                    : 83.3 MiB (11%)
Alignment                      : Aligned on interleaves
Interleave, duration           : 42 ms (1.00 video frame)
Interleave, preload duration   : 504 ms
Скриншоты:




Время раздачи: 10:00 - 24:00
[NNM-Club.me]_Otkrytyj.perelom.2013.HDRip.avi.torrent
 Торрент: Платиновая раздача  Зарегистрирован
 
Скачать


Примагнититься
 Зарегистрирован:   27 Май 2014 07:23:21
 Размер:   744 MB  (
 Рейтинг:   4,5 (Голосов: 21)
 Поблагодарили:   94
 Проверка:   Оформление проверено модератором 27 Май 2014 11:39:48
Как cкачать  ·  Как раздать  ·  Правильно оформить  ·  Поднять ратио!  
corrector65
Стаж: 8 лет 10 мес.
Сообщений: 696
Ratio: 20,638
Поблагодарили: 6046
100%
ussr.gif
И как? Семейка помирилась?

_________________
igorten
Стаж: 8 лет 6 мес.
Сообщений: 33
Ratio: 3,093
0%
Да что за хрень, опять повелся на рейтинг IMDb отображаемый на иконке, в результате испорченный вечер :(
ВредныйЛьюис
Стаж: 10 лет 2 мес.
Сообщений: 270
Ratio: 11,062
100%
witch.png
igorten писал(а): Перейти к сообщению
Да что за [ерунда], опять повелся на рейтинг IMDb отображаемый на иконке, в результате испорченный вечер :(


За три года можно было бы и догадаться что ссылки кликабельны. А так... Нет ног, нет и пирожков.
Stanislav666
Стаж: 9 лет 6 мес.
Сообщений: 18
Ratio: 32,821
9.31%
russia.gif
так можно же просто на картинку навести, текущий рейтинг показывается.
Показать сообщения:   
Начать новую тему   Ответить на тему    Торрент-трекер NNM-Club -> Зарубежное кино -> Зарубежные Фильмы (HD*Rip/LQ, DVDRip, SATRip, VHSRip) Часовой пояс: GMT + 3
Страница 1 из 1