Классический форум-трекер
canvas not supported
Нас вместе: 4 076 795

Хороший, плохой, злой / Il buono, il brutto, il cattivo / The Good, The Bad And The Ugly (1966) HDTV [720p]


Страницы:  1, 2  След. 
 
RSS
Начать новую тему   Ответить на тему    Торрент-трекер NNM-Club -> Классика кино и Старые фильмы до 90-х -> Зарубежная Классика (HD, UHD, UHD-LQ, 3D)
Автор Сообщение
Гость ®
Хороший, плохой, злой / Il buono, il brutto, il cattivo / The Good, The Bad And The Ugly (1966) HDTV [720p]
Жанр: Боевик / Приключения

Режиссер: Серджо Леоне (Sergio Leone)
Год выпуска: 1966
Актеры: Клинт Иствуд (Clint Eastwood), Ли Ван Клиф (Lee Van Cleef), Илай Уоллок (Eli Wallach), Рада Рассимов (Rada Rassimov), Марио Брега (Mario Brega), Чело Алонсо (Chelo Alonso), Альдо Гюффре (Aldo Giuffre), Клаудио Скарчилли (Claudio Scarchilli), Энцо Петито (Enzo Petito), Луиджи Пистилли (Luigi Pistilli)

Описание:
Легендарная суперзвезда Клинт Иствуд - в своей фирменной роли Человек без имени в предельно напряженном приключенческом фильме. Динамичный сюжет и выдающаяся актерская игра!

В разгар гражданской войны таинственный стрелок (Иствуд) скитается по просторам Дикого Запада. У него нет ни жилища, ни приятелей, ни компаньонов... пока он не встречает двоих незнакомцев (Илай Уоллок и Ли Ван Клиф), таких же безжалостных и циничных. По воле судьбы трое мужчин вынуждены объединить свои усилия для поисков украденного золота. Но совместная работа - не самое подходящее занятие для таких отъявленных бандитов, как они. Компаньоны вскоре понимают, что в их дерзком и опасном путешествии по разоренной войной стране самое важное - никому не доверять и держать пистолет наготове, если хочешь остаться в живых...

Хороший, плохой, злой - крутое и суровое кино, расширившее рамки жанра. Этот фильм до сих пор остается самым масштабным и значительным вестерном в истории кино.


Возраст: 16+ (зрителям, достигшим 16 лет)
Рейтинг MPAA: R (лицам до 17 лет обязательно присутствие взрослого)

Продолжительность: 2:58:41
Видеокодек: H.264
Битрейт видео: 5987 Kbps
Размер кадра: 1280*544
Качество видео: HDTV
Аудиокодек: AC3 6 channels
Битрейт аудио: 384 Kbps
Перевод: Полный дубляж
Код: выделить все
Общее
Уникальный идентификатор                 : 172424566065593218600083918221600579106 (0x81B7C3744D2F633791213FDFCC4F5E22)
Полное имя                               : Хороший, плохой, злой  (720p).mkv
Формат                                   : Matroska
Версия формата                           : Version 1
Размер файла                             : 7,96 Гбайт
Продолжительность                        : 2 ч. 58 м.
Общий поток                              : 6374 Кбит/сек
Дата кодирования                         : UTC 2007-10-14 08:40:07
Программа кодирования                    : mkvmerge v1.7.0 ('What Do You Take Me For') built on Apr 28 2006 17:20:19
Библиотека кодирования                   : libebml v0.7.7 + libmatroska v0.8.0

Видео
Идентификатор                            : 1
Формат                                   : AVC
Формат/Информация                        : Advanced Video Codec
Профиль формата                          : High@L5.1
Параметр CABAC формата                   : Да
Параметр ReFrames формата                : 7 кадров
Идентификатор кодека                     : V_MPEG4/ISO/AVC
Продолжительность                        : 2 ч. 58 м.
Битрейт                                  : 5986 Кбит/сек
Ширина                                   : 1280 пикселей
Высота                                   : 544 пикселя
Соотношение сторон                       : 2,35:1
Режим частоты кадров                     : Постоянный
Частота кадров                           : 23,976 (24000/1001) кадра/сек
Цветовое пространство                    : YUV
Субдискретизация насыщенности            : 4:2:0
Битовая глубина                          : 8 бит
Тип развёртки                            : Прогрессивная
Бит/(Пиксели*Кадры)                      : 0.359
Размер потока                            : 7,32 Гбайт (92%)
Заголовок                                : Video 5987kbps
Библиотека кодирования                   : x264 core 50 svn-569M
Настройки программы                      : cabac=1 / ref=4 / deblock=1:-2:-2 / analyse=0x3:0x133 / me=hex / subme=6 / brdo=1 / mixed_ref=1 / me_range=16 / chroma_me=1 / trellis=1 / 8x8dct=1 / cqm=0 / chroma_qp_offset=0 / slices=2 / nr=0 / decimate=1 / bframes=3 / b_pyramid=1 / b_adapt=1 / b_bias=0 / direct=3 / wpredb=1 / bime=1 / keyint=250 / keyint_min=25 / scenecut=40 / rc=2pass / bitrate=5986 / ratetol=3.0 / rceq='blurCplx^(1-qComp)' / qcomp=0.60 / qpmin=10 / qpmax=51 / qpstep=4 / cplxblur=20.0 / qblur=0.5 / ip_ratio=1.40 / pb_ratio=1.30
Язык                                     : English
Default                                  : Да
Forced                                   : Нет

Аудио
Идентификатор                            : 2
Формат                                   : AC-3
Формат/Информация                        : Audio Coding 3
Расширение режима                        : CM (complete main)
Параметр Endianness формата              : Big
Идентификатор кодека                     : A_AC3
Продолжительность                        : 2 ч. 58 м.
Вид битрейта                             : Постоянный
Битрейт                                  : 384 Кбит/сек
Каналы                                   : 6 каналов
Расположение каналов                     : Front: L C R, Side: L R, LFE
Частота                                  : 48,0 КГц
Частота кадров                           : 31,250 кадров/сек (1536 spf)
Метод сжатия                             : С потерями
Размер потока                            : 491 Мбайт (6%)
Заголовок                                : Russian AC3 384kbps
Default                                  : Да
Forced                                   : Нет

Текст #1
Идентификатор                            : 3
Формат                                   : UTF-8
Идентификатор кодека                     : S_TEXT/UTF8
Идентификатор кодека/Информация          : UTF-8 Plain Text
Заголовок                                : Russian Subtitles
Язык                                     : Russian
Default                                  : Да
Forced                                   : Нет

Текст #2
Идентификатор                            : 4
Формат                                   : UTF-8
Идентификатор кодека                     : S_TEXT/UTF8
Идентификатор кодека/Информация          : UTF-8 Plain Text
Заголовок                                : English subtitles
Язык                                     : English
Default                                  : Нет
Forced                                   : Нет
Скриншоты:


The Good, the Bad and the Ugly (720p).mkv.torrent
 Торрент: Платиновая раздача  Зарегистрирован
 
Скачать


Примагнититься
 Зарегистрирован:   19 Янв 2019 21:46:51
 Размер:   7,96 GB  (
 Рейтинг:   4,9 (Голосов: 79)
 Поблагодарили:   256
 Проверка:   Оформление проверено модератором 19 Янв 2019 23:52:23
Как cкачать  ·  Как раздать  ·  Правильно оформить  ·  Поднять ратио!  
Romeo's
Стаж: 11 лет 5 мес.
Сообщений: 118
Ratio: 1,732
Поблагодарили: 18
100%
Откуда: Истра (Москва)
russia.gif
Где год выпуска ???

Вроде как 1966. Так на IMDb указано... :)
User Rating: 9.0/10 (90,838 votes)
Оценка просто супер, надо это смотреть !!!
/life
Сталкер
Стаж: 12 лет 1 мес.
Сообщений: 3786
Ratio: 20,661
Поблагодарили: 9736
100%
Откуда: Папуа - Новая Гвинея
roody.gif
RiLTiX
вначале пишется русское название . потом оригинальное , и год выпуска забыл в заголовке , исправил сам :подмигивание:

_________________
RiLTiX ®
Гость
/life
Спасибо =)
BadgerM
Стаж: 11 лет 6 мес.
Сообщений: 28
Ratio: 5,38
100%
russia.gif
Оооочень хорошее кино - сам много раз смотрел!
eidoss
Стаж: 12 лет 4 мес.
Сообщений: 2195
Ratio: 1,893
Поблагодарили: 9854
100%
Откуда: Северная Пальмира
russia.gif
RiLTiX писал(а):
HDTV.720p

RiLTiX писал(а):
Размер кадра: 1280*544

Это так и надо?
RiLTiX ®
Гость
eidoss
Ога...

Аналогичный пример...

http://www.nnm-club.me/forum/viewtopic.php?t=78767

ну и еще как минимум 20% раздач в HDTV
abatuev
 
Стаж: 11 лет 7 мес.
Сообщений: 52
Ratio: 5,931
100%
russia.gif
Фильм просто ПОТРЯСНЫЙ! Жаль что весит так много.
Romeo's
Стаж: 11 лет 5 мес.
Сообщений: 118
Ratio: 1,732
Поблагодарили: 18
100%
Откуда: Истра (Москва)
russia.gif
Согласен, фильму - УРА. Рипните кто-нить, кто умеет это хорошо делать !
rootpuppet
 
Стаж: 12 лет
Сообщений: 185
Ratio: 1,195
Поблагодарили: 204
9.78%
czechrepublic.gif
Сидеры, этот релиз на двухслойную болванку влезет?
flatttt
Стаж: 11 лет 10 мес.
Сообщений: 122
Ratio: 16,161
Поблагодарили: 18
100%
Наткнулся на саундтрек из фильма и решил посмотреть, до сих пор не видел, качаю)

А музыка просто обалденная, Энио Морриконе супер )
Жопорук
Стаж: 11 лет 1 мес.
Сообщений: 753
Ratio: 2,615
Раздал: 3,547 TB
Поблагодарили: 2182
100%
Откуда: Страна настоящих пиратов
somalia.gif
Спасибо, отличный фильм!

_________________
Изображение на моем аватаре содержит сцены употребления веществ и насилия сексуального характера (имел я эту работу).
Не рекомендуется к просмотру лицам до 18 лет!
inst2
Стаж: 7 лет 9 мес.
Сообщений: 2
Ratio: 5,99
Раздал: 144 GB
12.86%
Здесь правда "Полный дубляж"? o_O
tomat80
Стаж: 9 лет 5 мес.
Сообщений: 381
Ratio: 20,979
Раздал: 10,14 TB
Поблагодарили: 1882
100%
russia.gif
Классика жанра. Смотрел много раз и ни разу не пожалел потраченного времени. Советую всем, кто ни разу не смотрел!

_________________
Науки делятся на естественные, неестесственные и противоестесственные.
Petrovich)))
Стаж: 10 лет 11 мес.
Сообщений: 198
Ratio: 17,698
Раздал: 10,13 TB
1.99%
да фильм крут, мой любимый вестрн

_________________
работа работа перейди на Федота с Федота на Якова с Якова на всякага...
Показать сообщения:   
Начать новую тему   Ответить на тему    Торрент-трекер NNM-Club -> Классика кино и Старые фильмы до 90-х -> Зарубежная Классика (HD, UHD, UHD-LQ, 3D) Часовой пояс: GMT + 3
Страницы:  1, 2  След.
Страница 1 из 2