Классический форум-трекер
canvas not supported
Нас вместе: 4 094 984

Верность, надежда и любовь / Twist and Shout (1984) DVDRip


 
 
RSS
Начать новую тему   Ответить на тему    Торрент-трекер NNM-Club -> Классика кино и Старые фильмы до 90-х -> Старые Зарубежные Фильмы (HD*Rip/LQ, DVDRip, SATRip, VHSRip)
Автор Сообщение
MakssGame ®
Стаж: 7 лет 3 мес.
Сообщений: 2805
Ratio: 47,208
Поблагодарили: 154087
100%
Cape_Verde.gif
Верность, надежда и любовь / Twist and Shout (1984) DVDRip
Год выпуска: 1984
Производство: Дания / Childrens Film Council, Danmarks Radio (DR), Det Danske Filminstitut
Жанр: Драма, Мелодрама

Описание фильма:
Взаимоотношения датских подростков в 1963 году. Любовь, сексуальные увлечения, порой жестокость… И, наконец, взросление...

Вторая часть дилогии: "Заппа" - "Twist & Shout".

Режиссер: Билле Аугуст
Актеры: Адам Тёнсберг, Ларс Симонсен, Камилла Сёэберг, Ульрикке Бондо, Бент Мейдинг, Осе Хансен, Арне Хансен, Лоне Линдорфф, Томас Нилсен, Малене Шварц

Продолжительность: 01:43:02
Качество видео: DVDRip
Перевод: Авторский (одноголосый) Сергей Кузнецов



Видеокодек: DivX 5
Битрейт видео: ~1753 kbps
Размер кадра: 720 x 448
Аудио:
Аудио #1: AC3, 48000Hz, 128 kb/s, stereo (2/0) | Русский
Аудио #2: AC3, 48000Hz, 128 kb/s, stereo (2/0) | Датский
Общее
Полное имя : C:\Торрент\Twist.and.Shout_1984.DVDRip.avi
Формат : AVI
Формат/Информация : Audio Video Interleave
Размер файла : 1,46 Гбайт
Продолжительность : 1 ч. 43 м.
Общий поток : 2024 Кбит/сек
Программа кодирования : VirtualDubMod 1.6.0.0 SURROUND (build 2560/release)
Библиотека кодирования : VirtualDubMod build 2560/release

Видео
Идентификатор : 0
Формат : MPEG-4 Visual
Параметр BVOP формата : 1
Параметр QPel формата : Нет
Параметр GMC формата : Без точки перехода
Параметр матрицы формата : Default (H.263)
Режим смешивания : Сжатый битовый поток
Идентификатор кодека : DX50
Идентификатор кодека/Подсказка : DivX 5
Продолжительность : 1 ч. 43 м.
Битрейт : 1754 Кбит/сек
Ширина : 720 пикселей
Высота : 448 пикселей
Соотношение сторон : 5:4
Соотношение сторон в оригинале : 16:10
Частота кадров : 25,000 кадров/сек
Цветовое пространство : YUV
Субдискретизация насыщенности : 4:2:0
Битовая глубина : 8 бит
Тип развёртки : Прогрессивная
Метод сжатия : С потерями
Бит/(Пиксели*Кадры) : 0.217
Размер потока : 1,26 Гбайт (87%)
Библиотека кодирования : DivX 6.8.5 (UTC 2009-08-20)

Аудио #1
Идентификатор : 1
Формат : AC-3
Формат/Информация : Audio Coding 3
Расширение режима : CM (complete main)
Параметр Endianness формата : Big
Идентификатор кодека : 2000
Продолжительность : 1 ч. 43 м.
Вид битрейта : Постоянный
Битрейт : 128 Кбит/сек
Каналы : 2 канала
Расположение каналов : Front: L R
Частота : 48,0 КГц
Битовая глубина : 16 бит
Метод сжатия : С потерями
Размер потока : 94,3 Мбайт (6%)
Выравнивание : Разделение по промежуткам
Продолжительность промежутка : 40 мс. (1,00 видеокадр)
Время предзагрузки промежутка : 500 мс.

Аудио #2
Идентификатор : 2
Формат : AC-3
Формат/Информация : Audio Coding 3
Расширение режима : CM (complete main)
Параметр Endianness формата : Big
Идентификатор кодека : 2000
Продолжительность : 1 ч. 43 м.
Вид битрейта : Постоянный
Битрейт : 128 Кбит/сек
Каналы : 2 канала
Расположение каналов : Front: L R
Частота : 48,0 КГц
Битовая глубина : 16 бит
Метод сжатия : С потерями
Размер потока : 94,3 Мбайт (6%)
Выравнивание : Разделение по промежуткам
Продолжительность промежутка : 40 мс. (1,00 видеокадр)
Время предзагрузки промежутка : 500 мс.
Скриншоты:



Первая часть фильма на NNM-club

Время раздачи: 10:00-24:00
[NNM-Club.me]_Twist.and.Shout_1984.DVDRip.avi.torrent
 Торрент: Платиновая раздача  Зарегистрирован
 
Скачать


Примагнититься
 Зарегистрирован:   29 Май 2014 11:44:13
 Размер:   1,46 GB  (
 Рейтинг:   4,9 (Голосов: 11)
 Поблагодарили:   47
 Проверка:   Оформление проверено модератором 29 Май 2014 23:00:21
Как cкачать  ·  Как раздать  ·  Правильно оформить  ·  Поднять ратио!  
mvclub
Стаж: 7 лет 8 мес.
Сообщений: 2226
Ratio: 32,291
Раздал: 5,876 TB
Поблагодарили: 37774
100%
Откуда: Питер
russia.gif
Классно перевели "Twist & Shout")))
Жан Габен
Стаж: 8 лет 2 мес.
Сообщений: 610
Ratio: 1193,109
Поблагодарили: 7647
100%
Судя по скринам датчане некрасивая нация была в начале 60-х, не знаю как сейчас, я там не был.

_________________
Показать сообщения:   
Начать новую тему   Ответить на тему    Торрент-трекер NNM-Club -> Классика кино и Старые фильмы до 90-х -> Старые Зарубежные Фильмы (HD*Rip/LQ, DVDRip, SATRip, VHSRip) Часовой пояс: GMT + 3
Страница 1 из 1