Классический форум-трекер
canvas not supported
Нас вместе: 4 079 125

Иваново детство (1962) BDRip [576p] iPad


 
 
RSS
Начать новую тему   Ответить на тему    Торрент-трекер NNM-Club -> Аудио и Видео -> Отечественное видео для устройств Apple
Автор Сообщение
MakssGame ®
Стаж: 6 лет 11 мес.
Сообщений: 2790
Ratio: 47,208
Поблагодарили: 152607
100%
Cape_Verde.gif
Иваново детство (1962) BDRip [576p] iPad
Год выпуска: 1962
Производство: СССР / Мосфильм
Жанр: Драма, Военный

Описание фильма:
…Детство 12-летнего Ивана закончилось в тот день, когда у него на глазах фашисты расстреляли мать и сестренку. Отец мальчика погиб на фронте. Оставшись сиротой, Иван уходит в воинскую часть и становится неуловимым разведчиком. Он с риском для жизни добывает для командования бесценные сведения о противнике. Но война есть война…

Режиссер: Андрей Тарковский
Актеры: Николай Бурляев, Валентин Зубков, Евгений Жариков, Степан Крылов, Николай Гринько, Дмитрий Милютенко, Валентина Малявина, Ирина Тарковская, Андрей Кончаловский, Иван Савкин

Продолжительность: 01:35:13
Качество видео: BDRip
Перевод: Не требуется



Видеокодек: MPEG-4 AVC/H.264
Битрейт видео: ~2600 kbps
Размер кадра: 770x576
Аудиокодек: AAC (2ch)
Битрейт аудио: ~100 kbps
x264 [info]: frame I:650 Avg QP:14.84 size: 75940 PSNR Mean Y:47.80 U:100.00 V:100.00 Avg:49.56 Global:49.12
x264 [info]: frame P:24254 Avg QP:18.75 size: 33635 PSNR Mean Y:44.53 U:100.00 V:100.00 Avg:46.29 Global:45.74
x264 [info]: frame B:112073 Avg QP:21.98 size: 11903 PSNR Mean Y:42.42 U:100.00 V:100.00 Avg:44.18 Global:43.48
x264 [info]: consecutive B-frames: 0.8% 0.8% 3.0% 11.9% 14.4% 42.9% 8.9% 3.9% 3.4% 2.7% 2.2% 3.2% 1.9%
x264 [info]: mb I I16..4: 4.5% 72.4% 23.2%
x264 [info]: mb P I16..4: 0.5% 13.0% 1.1% P16..4: 35.9% 26.5% 15.4% 0.0% 0.0% skip: 7.5%
x264 [info]: mb B I16..4: 0.0% 3.1% 0.1% B16..8: 41.3% 10.3% 3.8% direct: 7.2% skip:34.0% L0:46.5% L1:42.7% BI:10.8%
x264 [info]: 8x8 transform intra:90.2% inter:61.0%
x264 [info]: coded y,uvDC,uvAC intra: 95.8% 0.0% 0.0% inter: 31.2% 0.0% 0.0%
x264 [info]: i16 v,h,dc,p: 44% 15% 13% 28%
x264 [info]: i8 v,h,dc,ddl,ddr,vr,hd,vl,hu: 7% 9% 13% 10% 13% 12% 14% 10% 14%
x264 [info]: i4 v,h,dc,ddl,ddr,vr,hd,vl,hu: 8% 6% 5% 10% 16% 14% 15% 12% 15%
x264 [info]: i8c dc,h,v,p: 100% 0% 0% 0%
x264 [info]: Weighted P-Frames: Y:18.1% UV:0.0%
x264 [info]: ref P L0: 37.5% 11.5% 17.2% 7.6% 6.6% 4.8% 4.6% 2.5% 2.6% 2.1% 2.4% 0.6% 0.0%
x264 [info]: ref B L0: 63.2% 14.0% 7.6% 4.3% 3.1% 2.8% 2.2% 1.5% 0.8% 0.4%
x264 [info]: ref B L1: 90.6% 9.4%
x264 [info]: SSIM Mean Y:0.9687226 (15.048db)
x264 [info]: PSNR Mean Y:42.823 U:100.000 V:100.000 Avg:44.581 Global:43.822 kb/s:3079.50
General
Format : MPEG-4
Format profile : Base Media / Version 2
Codec ID : mp42
File size : 2.14 GiB
Duration : 1h 35mn
Overall bit rate mode : Variable
Overall bit rate : 3 217 Kbps
Movie name : Иваново детство
Performer : Андрей Тарковский
Genre : Drama
ContentType : Short Film
Description : ...Детство 12-летнего Ивана закончилось в тот день, когда у него на глазах фашисты расстреляли мать и сестренку. Отец мальчика погиб на фронте. Оставшись сиротой, Иван уходит в воинскую часть и становится неуловимым разведчиком.
Recorded date : 1962-04-06
Encoded date : UTC 2014-04-19 10:34:24
Tagged date : UTC 2014-04-21 09:34:47
Copyright : © 1962 Mosfilm Studios.
Cover : Yes
Rating : None
LongDescription : ...Детство 12-летнего Ивана закончилось в тот день, когда у него на глазах фашисты расстреляли мать и сестренку. Отец мальчика погиб на фронте. Оставшись сиротой, Иван уходит в воинскую часть и становится неуловимым разведчиком.Он с риском для жизни добывает для командования бесценные сведения о противнике. Но война есть война...
AppleStoreCountry : United States
AppleStoreCatalogID : 470884389
Vendor : Apple:vendor_id:1962-42667
iTunMOVI : <?xml version="1.0" encoding="UTF-8"?> / <!DOCTYPE plist PUBLIC "-//Apple//DTD PLIST 1.0//EN" "http://www.apple.com/DTDs/PropertyList-1.0.dtd"> / <plist version="1.0"> / <dict> / <key>cast</key> / <array> / <dict> / <key>name</key> / <string>Николай Бурляев</string> / </dict> / <dict> / <key>name</key> / <string>Валентин Зубков</string> / </dict> / <dict> / <key>name</key> / <string>Евгений Жариков</string> / </dict> / <dict> / <key>name</key> / <string>Степан Крылов</string> / </dict> / <dict> / <key>name</key> / <string>Николай Гринько</string> / </dict> / <dict> / <key>name</key> / <string>Дмитрий Милютенко</string> / </dict> / <dict> / <key>name</key> / <string>Валентина Малявина</string> / </dict> / <dict> / <key>name</key> / <string>Ирина Тарковская</string> / </dict> / <dict> / <key>name</key> / <string>Андрей Кончаловский</string> / </dict> / <dict> / <key>name</key> / <string>Иван Савкин</string> / </dict> / </array> / <key>directors</key> / <array> / <dict> / <key>name</key> / <string>Андрей Тарковский</string> / </dict> / </array> / <key>screenwriters</key> / <array> / <dict> / <key>name</key> / <string>Михаил Папава</string> / </dict> / <dict> / <key>name</key> / <string>Владимир Богомолов</string> / </dict> / <dict> / <key>name</key> / <string>Андрей Кончаловский</string> / </dict> / </array> / </dict> / </plist>

Video
ID : 1
Format : AVC
Format/Info : Advanced Video Codec
Format profile : High@L3.2
Format settings, CABAC : Yes
Format settings, ReFrames : 11 frames
Codec ID : avc1
Codec ID/Info : Advanced Video Coding
Duration : 1h 35mn
Bit rate : 3 079 Kbps
Width : 768 pixels
Height : 576 pixels
Display aspect ratio : 4:3
Frame rate mode : Variable
Frame rate : 23.976 fps
Minimum frame rate : 23.974 fps
Maximum frame rate : 90 000.000 fps
Color space : YUV
Chroma subsampling : 4:2:0
Bit depth : 8 bits
Scan type : Progressive
Bits/(Pixel*Frame) : 0.290
Stream size : 2.05 GiB (96%)
Writing library : x264 core 130 r2273 b3065e6
Encoding settings : cabac=1 / ref=11 / deblock=1:-2:-1 / analyse=0x3:0x113 / me=umh / subme=10 / psy=1 / psy_rd=1.00:0.00 / mixed_ref=1 / me_range=32 / chroma_me=1 / trellis=2 / 8x8dct=1 / cqm=0 / deadzone=21,11 / fast_pskip=1 / chroma_qp_offset=-2 / threads=6 / lookahead_threads=1 / sliced_threads=0 / nr=0 / decimate=1 / interlaced=0 / bluray_compat=0 / constrained_intra=0 / bframes=12 / b_pyramid=2 / b_adapt=2 / b_bias=0 / direct=1 / weightb=1 / open_gop=0 / weightp=2 / keyint=240 / keyint_min=24 / scenecut=40 / intra_refresh=0 / rc_lookahead=40 / rc=crf / mbtree=1 / crf=18.0 / qcomp=0.60 / qpmin=0 / qpmax=69 / qpstep=4 / ip_ratio=1.40 / aq=1:1.00
Language : Russian
Encoded date : UTC 2014-04-19 10:34:24
Tagged date : UTC 2014-04-19 14:59:55
Color primaries : BT.709
Transfer characteristics : BT.709
Matrix coefficients : BT.709

Audio
ID : 2
Format : AAC
Format/Info : Advanced Audio Codec
Format profile : LC
Codec ID : 40
Duration : 1h 35mn
Bit rate mode : Variable
Bit rate : 128 Kbps
Maximum bit rate : 169 Kbps
Channel(s) : 1 channel
Channel positions : Front: C
Sampling rate : 48.0 KHz
Compression mode : Lossy
Stream size : 87.1 MiB (4%)
Language : Russian
Encoded date : UTC 2014-04-19 10:34:24
Tagged date : UTC 2014-04-19 14:59:55

Text
ID : 3
Format : Timed Text
Muxing mode : sbtl
Codec ID : tx3g
Duration : 1h 35mn
Bit rate mode : Variable
Bit rate : 34 bps
Stream size : 23.6 KiB (0%)
Language : English
Encoded date : UTC 2014-04-21 09:29:55
Tagged date : UTC 2014-04-21 09:34:47
Name: Иваново детство
Artist: Андрей Тарковский
Release Date: 1962-04-06T08:00:00Z
Description: ...Детство 12-летнего Ивана закончилось в тот день, когда у него на глазах фашисты расстреляли мать и сестренку. Отец мальчика погиб на фронте. Оставшись сиротой, Иван уходит в воинскую часть и становится неуловимым разведчиком.
Long Description: ...Детство 12-летнего Ивана закончилось в тот день, когда у него на глазах фашисты расстреляли мать и сестренку. Отец мальчика погиб на фронте. Оставшись сиротой, Иван уходит в воинскую часть и становится неуловимым разведчиком.Он с риском для жизни добывает для командования бесценные сведения о противнике. Но война есть война...
Cast: Николай Бурляев, Валентин Зубков, Евгений Жариков, Степан Крылов, Николай Гринько, Дмитрий Милютенко, Валентина Малявина, Ирина Тарковская, Андрей Кончаловский, Иван Савкин
Director: Андрей Тарковский
Screenwriters: Михаил Папава, Владимир Богомолов, Андрей Кончаловский
contentID: 470884389
XID: Apple:vendor_id:1962-42667
Скриншоты:




Иваново детство на NNM-club

Время раздачи: 10:00-24:00
[NNM-Club.me]_IVANS.CHILDHOOD.1962.576p.O.m4v.torrent
 Торрент: Платиновая раздача  Зарегистрирован
 
Скачать


Примагнититься
 Зарегистрирован:   29 Май 2014 23:11:56
 Размер:   1,8 GB  (
 Рейтинг:   4,5 (Голосов: 18)
 Поблагодарили:   44
 Проверка:   Оформление проверено модератором 30 Май 2014 12:24:37
Как cкачать  ·  Как раздать  ·  Правильно оформить  ·  Поднять ратио!  
Загрузка...
Показать сообщения:   
Начать новую тему   Ответить на тему    Торрент-трекер NNM-Club -> Аудио и Видео -> Отечественное видео для устройств Apple Часовой пояс: GMT + 3
Страница 1 из 1