Классический форум-трекер
canvas not supported
Нас вместе: 4 093 442

Первобытный страх / Primal Fear (1996) HDRip


 
 
RSS
Начать новую тему   Ответить на тему    Торрент-трекер NNM-Club -> Зарубежное кино -> Зарубежные Фильмы (HD*Rip/LQ, DVDRip, SATRip, VHSRip)
Автор Сообщение
ra3wa ®
Модератор Видео
RG Releasers
Uploader 100+
 
Стаж: 9 лет 7 мес.
Сообщений: 12655
Ratio: 9197,36
Раздал: 428,5 TB
Поблагодарили: 2470773
100%
Откуда: Воронеж
russia.gif
Первобытный страх / Primal Fear (1996) HDRip
Год выпуска: 1996
Производство: США, Paramount Pictures
Жанр: Детектив, триллер, драма

Описание фильма:
Страх, ложь и цинизм — основные темы судебной драмы. В убийстве чикагского архиепископа обвиняется молодой парень, который, несмотря на все улики, отрицает свою виновность и убеждает в этом своего адвоката. Их отношения становятся все более напряженными и запутанными. В ходе судебного процесса сталкиваются бывшие любовники — прокурор Дженет Винейбл и адвокат Мартин Вейл.

Режиссер: Грегори Хоблит
Актеры: Ричард Гир, Лора Линни, Эдвард Нортон, Джон Махони, Фрэнсис МакДорманд, Элфри Вудард, Терри О`Куин, Андре Брогер, Стивен Бауэр, Джо Спано, Тони Плана, Стэнли Андерсон, Мора Тирни, Джон Седа, Рег Роджерс, Кеннет Тайгар, Брайан Редди, Кристофер Кэрролл, Уэнди Катлер, Линда Ю, Роберт Джордан, Рэндолл Слэвин, Майк Бакарелла, Питер Шрайнер, Уэйн Райт, Тони Фицпатрик, Ларри Кук

Продолжительность: 02:10:27
Перевод: Профессиональный многоголосый



Видеокодек: XviD
Битрейт видео: ~1931 Кбит/с
Размер кадра: 720x400
Качество видео: HDRip
Аудиокодек: AC3 6 ch
Битрейт аудио: 448 Кбит/с

Награды и номинации
Общее
Полное имя : D:\NNM\Первобытный страх\Pervobytnyj strah 1996.avi
Формат : AVI
Формат/Информация : Audio Video Interleave
Профиль формата : OpenDML
Размер файла : 2,18 Гбайт
Продолжительность : 2 ч. 10 м.
Общий поток : 2391 Кбит/сек
Программа кодирования : VirtualDubMod 1.5.10.2 (build 2540/release)

Видео
Идентификатор : 0
Формат : MPEG-4 Visual
Профиль формата : Advanced Simple@L5
Параметр BVOP формата : 1
Параметр QPel формата : Нет
Параметр GMC формата : Без точки перехода
Параметр матрицы формата : Выборочная
Идентификатор кодека : XVID
Идентификатор кодека/Подсказка : XviD
Продолжительность : 2 ч. 10 м.
Битрейт : 1931 Кбит/сек
Ширина : 720 пикселей
Высота : 400 пикселей
Соотношение сторон : 16:9
Частота кадров : 23,976 кадра/сек
Цветовое пространство : YUV
Субдискретизация насыщенности : 4:2:0
Битовая глубина : 8 бит
Тип развёртки : Прогрессивная
Метод сжатия : С потерями
Бит/(Пиксели*Кадры) : 0.280
Размер потока : 1,76 Гбайт (81%)
Библиотека кодирования : XviD 65

Аудио
Идентификатор : 1
Формат : AC-3
Формат/Информация : Audio Coding 3
Расширение режима : CM (complete main)
Идентификатор кодека : 2000
Продолжительность : 2 ч. 10 м.
Вид битрейта : Постоянный
Битрейт : 448 Кбит/сек
Каналы : 6 каналов
Расположение каналов : Front: L C R, Side: L R, LFE
Частота : 48,0 КГц
Битовая глубина : 16 бит
Метод сжатия : С потерями
Размер потока : 418 Мбайт (19%)
Выравнивание : Разделение по промежуткам
Продолжительность промежутка : 42 мс. (1,00 видеокадр)
Время предзагрузки промежутка : 500 мс.
Скриншоты: Время раздачи: Круглосуточно до 10 скачавших
[NNM-Club.me]_Pervobytnyj strah 1996.avi.torrent
 Торрент: Платиновая раздача  Зарегистрирован
 
Скачать


Примагнититься
 Зарегистрирован:   31 Май 2014 18:38:39
 Размер:   2,18 GB  (
 Рейтинг:   4,8 (Голосов: 95)
 Поблагодарили:   500
 Проверка:   Оформление проверено модератором 31 Май 2014 18:41:12
Как cкачать  ·  Как раздать  ·  Правильно оформить  ·  Поднять ратио!  
sergio1975
Стаж: 8 лет 8 мес.
Сообщений: 1574
Ratio: 6,594
100%
Откуда: Новосибирск
russia.gif
неплохой фильм,концовка как надо
dimans1000
Стаж: 9 лет 8 мес.
Сообщений: 83
Ratio: 2,982
Поблагодарили: 28
24.02%
Просто шикарный фильм, очень давно я такой не смотрел года 3 точно, словно книгу прочитал не отрываясь. Перевод отменный. Это же надо так всё закрутить.
sergredison
Стаж: 8 лет 8 мес.
Сообщений: 18
Ratio: 2,577
100%
russia.gif
Нет слов однозначно смотреть
Рубен2017
Стаж: 2 года 7 мес.
Сообщений: 9
Ratio: 6,822
13.71%
Спасибо!
Показать сообщения:   
Начать новую тему   Ответить на тему    Торрент-трекер NNM-Club -> Зарубежное кино -> Зарубежные Фильмы (HD*Rip/LQ, DVDRip, SATRip, VHSRip) Часовой пояс: GMT + 3
Страница 1 из 1