Классический форум-трекер
canvas not supported
Нас вместе: 4 076 865

Малыш и Карлсон, который живет на крыше (1971) DVDRip


 
 
RSS
Начать новую тему   Ответить на тему    Торрент-трекер NNM-Club -> Видео -> Отечественные Фильмы для детей
Автор Сообщение
895bender895 ®
Стаж: 8 лет 10 мес.
Сообщений: 21
Ratio: 10,57
Раздал: 3,16 TB
Поблагодарили: 2015
100%
Откуда: Harare
zimbabwe.gif
Малыш и Карлсон, который живет на крыше (1971) DVDRip
Год выпуска: 1971
Жанр: Детский, Комедия

Описание:
Озорной Карлсон и доверчивый Малыш — герои всем известной сказки. Карлсон очень любит пошалить, а на все последствия шалостей у него есть «фирменная» отговорка: «Пустяки, дело то житейское!». Правда, родители Малыша так не считают, но все равно, скучать со своим летающим другом ему не приходится. То, лазая по крышам, друзья предотвращают крупную кражу, то вместе укрощают злую домомучительницу.

Режиссер: Маргарита Микаэлян, Валентин Плучек
Актеры: Михаил Защипин, Спартак Мишулин, Татьяна Пельтцер, Наталья Защипина, Полина Казакевич, Юрий Соковнин, Андрей Миронов, Елена Юргенсон, Константин Райкин

Продолжительность: 01:31:05
Качество видео: DVDRip



Видеокодек: Xvid
Битрейт видео: ~1886 Кбит/сек
Размер кадра: 704x512
Аудиокодек: AC3 2.0
Битрейт аудио: 256 Кбит/сек
Общее
Полное имя : D:\ФИЛЬМЫ\Малыш и Карлсон, который живет на крыше_1971_DVDRip.avi
Формат : AVI
Формат/Информация : Audio Video Interleave
Размер файла : 1,37 Гбайт
Продолжительность : 1 ч. 31 м.
Общий поток : 2152 Кбит/сек
Программа кодирования : Nandub v1.0rc2
Библиотека кодирования : Nandub build 1852/release

Видео
Идентификатор : 0
Формат : MPEG-4 Visual
Профиль формата : Advanced Simple@L5
Параметр BVOP формата : 2
Параметр QPel формата : Нет
Параметр GMC формата : Без точки перехода
Параметр матрицы формата : Default (MPEG)
Идентификатор кодека : XVID
Идентификатор кодека/Подсказка : XviD
Продолжительность : 1 ч. 31 м.
Битрейт : 1886 Кбит/сек
Ширина : 704 пикселя
Высота : 512 пикселей
Соотношение сторон : 1,375
Частота кадров : 25,000 кадров/сек
Цветовое пространство : YUV
Субдискретизация насыщенности : 4:2:0
Битовая глубина : 8 бит
Тип развёртки : Прогрессивная
Метод сжатия : С потерями
Бит/(Пиксели*Кадры) : 0.209
Размер потока : 1,20 Гбайт (88%)
Библиотека кодирования : XviD 1.2.1 (UTC 2008-12-04)

Аудио
Идентификатор : 1
Формат : AC-3
Формат/Информация : Audio Coding 3
Расширение режима : CM (complete main)
Параметр Endianness формата : Big
Идентификатор кодека : 2000
Продолжительность : 1 ч. 31 м.
Вид битрейта : Постоянный
Битрейт : 256 Кбит/сек
Каналы : 2 канала
Расположение каналов : Front: L R
Частота : 48,0 КГц
Битовая глубина : 16 бит
Метод сжатия : С потерями
Размер потока : 167 Мбайт (12%)
Выравнивание : Разделение по промежуткам
Продолжительность промежутка : 40 мс. (1,00 видеокадр)
Время предзагрузки промежутка : 500 мс.
Скриншоты:


Время раздачи: с 7:00 до 22:00

Малыш и Карлсон, который живет на крыше на NNM-club
[NNM-Club.me]_Malyish i Karlson, kotoryiy zhivet na kryishe_1971_DVDRip.avi.torrent
 Торрент: Платиновая раздача  Зарегистрирован
 
Скачать


Примагнититься
 Зарегистрирован:   06 Июн 2014 14:30:05
 Размер:   1,37 GB  (
 Рейтинг:   4,8 (Голосов: 111)
 Поблагодарили:   397
 Проверка:   Оформление проверено модератором 07 Июн 2014 11:37:11
Как cкачать  ·  Как раздать  ·  Правильно оформить  ·  Поднять ратио!  
CAMOXA113
Стаж: 5 лет 6 мес.
Сообщений: 25
Ratio: 3,902
98.99%
Прекрасный спектакль! Прекрасный актерский состав! СПАСИБО! :да: :клево: :клево: :клево:
Dryzkin
Стаж: 9 лет 5 мес.
Сообщений: 80
Ratio: 44,407
100%
У меня есть это- Вещь!!!
pballsson
Стаж: 8 лет 2 мес.
Сообщений: 70
Ratio: 1,548
100%
australia.gif
А я, если честно признаться, не люблю этот спектакль. Потому что в детстве я боялся такого Карлсона - Спартака Мишулина с безумными глазами :-))
hanuman777
Стаж: 6 лет 7 мес.
Сообщений: 78
Ratio: 1,256
21.43%
russia.gif
Самый лучший Карлсон , любимый спектакль из прошлого......
LiLOF
Талант
Стаж: 6 лет 5 мес.
Сообщений: 857
Ratio: 0,957
Поблагодарили: 9
0.15%
По сути фильм показывает слишком реалистичную и пугающую ситуацию: Во время отсутствия родителей в окно детской заползает бомж живущий на крыше в лифтовой надстройке..Мало того что он съедает все запасы варенья, и портит вещи.. Психическое состояние маленького мальчика под угрозой!
Пока родители считают "Карлсона " воображаемым другом сына, все идет хорошо.. Но затем они приводят в дом неуравновешенную озабоченную домоуправительницу, имеющую садистские наклонности. Конфликт между бомжем и домоуправительницей приводит к страшным последствиям: страдают ппродуктовые запасы и домашние животные! Мальчик мечтает о большой собаке, что бы изгнать всех придурков из своей жизни!
kazik
Стаж: 10 лет 4 мес.
Сообщений: 199
Ratio: 61,441
Раздал: 38,39 TB
100%
russia.gif
Ходил 2 раза: сам в 70х и с дочкой в 90х.
mvl007
Стаж: 8 лет 1 мес.
Сообщений: 261
Ratio: 31,706
3.13%
Откуда: СССР
ussr.gif
Как молоды мы были... :ангел:

_________________
Я больше ничего не комментирую и не раздаю на этом трекере - мне это категорически запрещают!
Показать сообщения:   
Начать новую тему   Ответить на тему    Торрент-трекер NNM-Club -> Видео -> Отечественные Фильмы для детей Часовой пояс: GMT + 3
Страница 1 из 1