Классический форум-трекер
canvas not supported
Нас вместе: 4 077 956

Кости / Bones (2013) WEB-DL [H.264/1080p-LQ] (Сезон 9, серии 1-24(24)) [ТВ3]


 
 
RSS
Начать новую тему   Ответить на тему    Торрент-трекер NNM-Club -> Зарубежные сериалы -> Кости / Bones
Автор Сообщение
WOLF 80 ®
Uploader 100+
Стаж: 10 лет 1 мес.
Сообщений: 480
Ratio: 3902,785
Раздал: 156,9 TB
Поблагодарили: 30309
100%
Откуда: Санкт-Петербург
russia.gif
Кости / Bones (2013) WEB-DL [H.264/1080p-LQ] (Сезон 9, серии 1-24(24)) [ТВ3]
Год выпуска: 2013 - 2014
Производство: США, Fox
Жанр: Детектив, Драма

Перевод: Дублированный («ТВ3»)

Скачать сэмпл
Дата российской премьеры: 05.06.2014

Режиссер: Иэн Тойнтон, Милан Чейлов, Алекс Чэппл, Жанно Шварк, Кевин Хукс, Дуайт Эйч Литтл, и др.
Актеры: Дэвид Бориназ, Эмили Дешанель, Микаэла Конлин, Ти-Джей Тайн, Тамара Тейлор, Джон Фрэнсис Дейли, Патриция Белчер, Педж Вахдат, Фредди Принц Мл., Кэтлин Йорк, Майкл Грант Терри, Рид Даймонд, Мэтр Зикел, Карло Галло, Джоел Дэвид Мур, Юджин Бёрд, Райан О'Нил и др.

Описание фильма:
Доктор Тэмперанс Бреннан — судебный антрополог. Она — самый лучший специалист по костям. Специальный агент Сили Бут — бывший военный снайпер. Отлично разбирается в людях, имеет то, что называют «чутьём». Они объединяются, чтобы расследовать самые сложные преступления. А ещё в их распоряжении оснащённая по последнему слову техники лаборатория в Институте Джефферсона и преданные делу сотрудники.

В этом сезоне:
Буту и Бреннан предстоит схлестнутся в интеллектуальном поединке с маньяком (а возможно и не одним), противостоять бюрократам, продажным служителям закона, побывать на фальшивых похоронах… и (возможно) женится.

Релиз группа:

Продолжительность: ~00:43:00 серия
Качество видео: WEB-DL 1080p

Видеокодек: MPEG-4 AVC
Битрейт видео: ~ 4500 Кбит/с
Размер кадра: 1912x1072 (16:9)
Аудио #1: Русский 48.0 KHz, AC3, 2 channels, CBR 192 Kbps — дубляж (ТВ3)
Аудио #2: Английский 48.0 KHz, AC3, 6 channels, CBR 384 Kbps — оригинал
Общее
Уникальный идентификатор : 222740948740780118268968655930276297294 (0xA79258A74149095C83F1ED09C021BA4E)
Полное имя : D:\UPLOADED\СЕРИАЛЫ\BONES\Bones.s09.WEB-DL 1080 TV-3\01. Тайны в предложении (The Secret in the Proposal).mkv
Формат : Matroska
Версия формата : Version 4 / Version 2
Размер файла : 1,57 Гбайт
Продолжительность : 43 м.
Общий поток : 5172 Кбит/сек
Название фильма : 01. Тайны в предложении / The Secret in the Proposal
Дата кодирования : UTC 2014-06-07 14:53:52
Программа кодирования : mkvmerge v6.3.0 ('You can't stop me!') built on Jul 19 2013 16:27:38
Библиотека кодирования : libebml v1.3.0 + libmatroska v1.4.1

Видео
Идентификатор : 1
Формат : AVC
Формат/Информация : Advanced Video Codec
Профиль формата : High@L4.0
Параметр CABAC формата : Да
Параметр ReFrames формата : 4 кадра
Идентификатор кодека : V_MPEG4/ISO/AVC
Продолжительность : 43 м.
Битрейт : 4493 Кбит/сек
Ширина : 1912 пикселей
Высота : 1072 пикселя
Соотношение сторон : 16:9
Режим частоты кадров : Постоянный
Частота кадров : 23,962 кадра/сек
Цветовое пространство : YUV
Субдискретизация насыщенности : 4:2:0
Битовая глубина : 8 бит
Тип развёртки : Прогрессивная
Бит/(Пиксели*Кадры) : 0.091
Размер потока : 1,36 Гбайт (87%)
Заголовок : 01. Тайны в предложении / The Secret in the Proposal
Язык : English
Default : Да
Forced : Нет
Основные цвета : BT.709
Характеристики трансфера : BT.709
Коэффициенты матрицы : BT.709

Аудио #1
Идентификатор : 2
Формат : AC-3
Формат/Информация : Audio Coding 3
Расширение режима : CM (complete main)
Параметр Endianness формата : Big
Идентификатор кодека : A_AC3
Продолжительность : 43 м.
Вид битрейта : Постоянный
Битрейт : 192 Кбит/сек
Каналы : 2 канала
Расположение каналов : Front: L R
Частота : 48,0 КГц
Битовая глубина : 16 бит
Метод сжатия : С потерями
Размер потока : 59,5 Мбайт (4%)
Заголовок : Dub TV-3
Язык : Russian
Default : Да
Forced : Да

Аудио #2
Идентификатор : 3
Формат : AC-3
Формат/Информация : Audio Coding 3
Расширение режима : CM (complete main)
Параметр Endianness формата : Big
Идентификатор кодека : A_AC3
Продолжительность : 43 м.
Вид битрейта : Постоянный
Битрейт : 384 Кбит/сек
Каналы : 6 каналов
Расположение каналов : Front: L C R, Side: L R, LFE
Частота : 48,0 КГц
Битовая глубина : 16 бит
Метод сжатия : С потерями
Задержка видео : 7 мс.
Размер потока : 119 Мбайт (7%)
Заголовок : Eng DD5.1
Язык : English
Default : Нет
Forced : Нет
01. Тайны в предложении / The Secret in the Proposal
02. Обманный маневр / The Cheat in the Retreat
03. Мясник в машине / El Carnicero en el Coche
04. Смысл в жертве / The Sense in the Sacrifice
05. Женщина в списке / The Lady on the List
06. Женщина в белом / The Woman in White
07. Фашист на медовом месяце / The Nazi on the Honeymoon
08. Чувак в плотине / The Dude in the Dam
09. Ярость жюри / The Fury in the Jury
10. Тайна в мясе / The Mystery in the Meat
11. Вспышка в парке / The Spark in the Park
12. Убийца призрак / The Ghost in the Killer
13. Известный на Филиппинах / Big in the Philippines
14. Тренер в свином корме / The Master in the Slop
15. Наследница на холме / The Heiress in the Hill
16. Источник в тине / The Source in the Sludge
17. Коллектор в отстойнике / The Repo Man in the Septic Tan
18. Морковка в кудзу / The Carrot in the Kudzu
19. Разгадка в урне / The Turn in the Urn
20. Высокое в низком / The High in the Low
21. Мороз по делу / The Cold in the Case
22. Ноготь в гробу / The Nail in the Coffin
23. Трагедия королевы / The Drama in the Queen
24. Затворник в кресле-качалке / The Recluse in the Recliner

Скриншоты:

Время Раздачи: 24/7 - круглосуточно
[NNM-Club.me]_Bones.s09.WEB-DL 1080 TV-3.torrent
 Торрент: Платиновая раздача  Зарегистрирован
 
Скачать


Примагнититься
 Зарегистрирован:   29 Июн 2014 18:32:44
 Размер:   39,7 GB  (
 Рейтинг:   4,3 (Голосов: 59)
 Поблагодарили:   180
 Проверка:   Оформление проверено модератором 29 Июн 2014 19:00:59
Как cкачать  ·  Как раздать  ·  Правильно оформить  ·  Поднять ратио!  

_________________
На первом месте у меня семья и дети, а хобби =>Мои РЕЛИЗЫ <= в свободное от них время
too Cautious
Стаж: 7 лет 4 мес.
Сообщений: 14
Ratio: 13,156
Поблагодарили: 515
100%
Очень заинтересовался эпопеей благодаря данной раздаче, но интересно сначала. Подскажите пожалуйста, где найти 1й сезон в HD качестве, хотябы 720р?
WOLF 80 ®
Uploader 100+
Стаж: 10 лет 1 мес.
Сообщений: 480
Ratio: 3902,785
Раздал: 156,9 TB
Поблагодарили: 30309
100%
Откуда: Санкт-Петербург
russia.gif
29.06.14 Добавлены 22 - 24 серии. Финал сезона. Приятного просмотра!!!

_________________
На первом месте у меня семья и дети, а хобби =>Мои РЕЛИЗЫ <= в свободное от них время
zbtl
Uploader 100+
Стаж: 5 лет 11 мес.
Сообщений: 29
Ratio: 132,498
Раздал: 115,5 TB
100%
zimbabwe.gif
В 14 серии картинка не соответствует звуку. Звук опережает видео.
WOLF 80 ®
Uploader 100+
Стаж: 10 лет 1 мес.
Сообщений: 480
Ratio: 3902,785
Раздал: 156,9 TB
Поблагодарили: 30309
100%
Откуда: Санкт-Петербург
russia.gif
zbtl писал(а): Перейти к сообщению
В 14 серии картинка не соответствует звуку. Звук опережает видео.


Заменена. ПЕРЕКАЧАЙТЕ ТОРРЕНТ!!!!

_________________
На первом месте у меня семья и дети, а хобби =>Мои РЕЛИЗЫ <= в свободное от них время
йфцыувка
Стаж: 6 лет 8 мес.
Сообщений: 2
Ratio: 0,712
0%
10 сезон в переводе ТВ3 ожидается?
Показать сообщения:   
Начать новую тему   Ответить на тему    Торрент-трекер NNM-Club -> Зарубежные сериалы -> Кости / Bones Часовой пояс: GMT + 3
Страница 1 из 1