Классический форум-трекер
canvas not supported
Нас вместе: 4 084 322
Платим за отзывы

Адреналин: Высокое напряжение / Crank: High Voltage (2009) HDRip


 
 
RSS
Начать новую тему   Ответить на тему    Торрент-трекер NNM-Club -> Зарубежное кино -> Зарубежные Фильмы (HD*Rip/LQ, DVDRip, SATRip, VHSRip)
Автор Сообщение
JhaWithYou86 ®
Стаж: 7 лет 1 мес.
Сообщений: 67
Ratio: 35,572
Поблагодарили: 7652
100%
Откуда: Сергиев Посад
russia.gif
Адреналин: Высокое напряжение / Crank: High Voltage (2009) HDRip
Год выпуска: 2009
Производство: США
Жанр: Криминал, Боевик, Комедия

Описание фильма:
Он умер, но обещал вернуться! Не чудом, а благодаря современным медицинским технологиям Чев Челиос получает новое сердце и новый шанс отомстить своим врагам. Теперь для постоянной подзарядки ему требуется электрический разряд мощностью не меньше, чем у .

Режиссер: Марк Невелдайн, Брайан Тэйлор
Актеры: Джейсон Стэтхэм, Эми Смарт, Клифтон Коллинз мл., Бай Лин, Дэвид Кэррадайн, Кори Хэйм, Эфрен Рамирез, Дуайт Йоакам, Гленн Хоуертон, Холли Вебер

Продолжительность: 01:35:50
Качество видео: HDRip
Перевод: Дублированный



Дата мировой премьеры: 16 апреля 2009
Дата российской премьеры: 16 апреля 2009
Дата выхода DVD релиза: 7 мая 2009

Видеокодек: Xvid
Битрейт видео: ~944 kb/s
Размер кадра: 656x352
Аудиокодек: MP3, 2 ch
Битрейт аудио: 128 kb/s
Формат : AVI
Формат/Информация : Audio Video Interleave
Размер файла : 742 Мбайт
Продолжительность : 1 ч. 35 м.
Общий поток : 1082 Кбит/сек
Программа кодирования : VirtualDubMod 1.5.10.2 (build 2540/release)
Библиотека кодирования : VirtualDubMod build 2540/release

Видео
Идентификатор : 0
Формат : MPEG-4 Visual
Профиль формата : Advanced Simple@L5
Параметр BVOP формата : 1
Параметр QPel формата : Нет
Параметр GMC формата : Без точки перехода
Параметр матрицы формата : Выборочная
Идентификатор кодека : XVID
Идентификатор кодека/Подсказка : XviD
Продолжительность : 1 ч. 35 м.
Битрейт : 945 Кбит/сек
Ширина : 656 пикселей
Высота : 352 пикселя
Соотношение сторон : 1,85:1
Частота кадров : 23,976 кадра/сек
Цветовое пространство : YUV
Субдискретизация насыщенности : 4:2:0
Битовая глубина : 8 бит
Тип развёртки : Прогрессивная
Метод сжатия : С потерями
Бит/(Пиксели*Кадры) : 0.171
Размер потока : 648 Мбайт (87%)
Библиотека кодирования : XviD 1.2.1 (UTC 2008-12-04)

Аудио
Идентификатор : 1
Формат : MPEG Audio
Версия формата : Version 1
Профиль формата : Layer 3
Идентификатор кодека : 55
Идентификатор кодека/Подсказка : MP3
Продолжительность : 1 ч. 35 м.
Вид битрейта : Постоянный
Битрейт : 128 Кбит/сек
Каналы : 2 канала
Частота : 48,0 КГц
Метод сжатия : С потерями
Размер потока : 87,7 Мбайт (12%)
Выравнивание : Соединение по промежуткам
Продолжительность промежутка : 42 мс. (1,00 видеокадр)
Время предзагрузки промежутка : 504 мс.
Библиотека кодирования : LAME3.97
Настройки программы : -m s -V 4 -q 2 -lowpass 17 -b 128
Скриншоты:


Время раздачи: 24/7 (до 10 скачавших)
[NNM-Club.me]_Adrenalin_2_Vysokoe_napryajenie_HDRip.avi.torrent
 Торрент: Платиновая раздача  Зарегистрирован
 
Скачать


Примагнититься
 Зарегистрирован:   08 Июн 2014 13:25:29
 Размер:   742 MB  (
 Рейтинг:   4,3 (Голосов: 68)
 Поблагодарили:   127
 Проверка:   Оформление проверено модератором 08 Июн 2014 18:38:46
Как cкачать  ·  Как раздать  ·  Правильно оформить  ·  Поднять ратио!  

_________________
Немцев будет тошнить от нас, немцы будут говорить о нас, немцы будут бояться нас!
Loading...
Мега_Саня
Стаж: 7 лет 7 мес.
Сообщений: 519
Ratio: 3,401
Раздал: 1,965 TB
Поблагодарили: 501
100%
Откуда: Созв. Тельца, Альдебаран
pirates.png
Такой же бред, как и первая часть.
За релиз СПС.
Показать сообщения:   
Начать новую тему   Ответить на тему    Торрент-трекер NNM-Club -> Зарубежное кино -> Зарубежные Фильмы (HD*Rip/LQ, DVDRip, SATRip, VHSRip) Часовой пояс: GMT + 3
Страница 1 из 1