Классический форум-трекер
canvas not supported
Нас вместе: 4 094 203

Старый новый дом (2013) WEB-DLRip [H.264/1080p-LQ] (серии 1-2 из 2)


 
 
RSS
Начать новую тему   Ответить на тему    Торрент-трекер NNM-Club -> Отечественное кино -> Отечественные Фильмы (HD*Rip/LQ, DVDRip, SATRip, VHSRip)
Автор Сообщение
seperovych ®
Стаж: 9 лет 8 мес.
Сообщений: 1501
Ratio: 55,093
Раздал: 35,58 TB
Поблагодарили: 150015
100%
Откуда: Киев
ukraine.gif
Старый новый дом (2013) WEB-DLRip [H.264/1080p-LQ] (серии 1-2 из 2)
Производство: "Mars Media", Россия
Жанр: Комедия, Мелодрама

Режиссер: Анжелика Грицук
Актеры: Рина Гришина, Михаил Пореченков, Андрей Мерзликин, Максим Виторган, Дарья Екамасова, Дарья Калмыкова, Юлия Ауг, Олеся Фаттахова, Сергей Беляев, Александр Баршак, Александр Усов

Описание:
В доме номер 15 по улице Пестро-Серой живут самые обычные люди. Вот только этой зимой им как-то особенно не везет. У Лены случилась беда — её молодой человек оказался аферистом. Он взял в банке кредит под залог её квартиры, а сам исчез. У Светланы с Герой — кризис семейной жизни. Ей кажется, что муж не способен на настоящие поступки, но он ради нее готов на все. Даже ограбить банк. Юра и Оля ругаются в день свадьбы, а супруги Бариновы — всю жизнь… Все так заняты своими делами, что едва не пропускают момент, когда их ближнему отчаянно требуется помощь. И лишь вмешательство обстоятельств все расставляет на свои места.



Продолжительность: ~ 00:45:00 серия
Качество видео: WEB-DLRip

Видеокодек: AVC/H.264
Битрейт видео: ~4000 Kbps
Размер кадра: 1920x1080 (16:9)
Аудиокодек: AC3
Битрейт аудио: 2 ch, 192 Kbps
Код: выделить все
Общее
Уникальный идентификатор : 228632578670684588714029223055140655781 (0xAC01086F921B2AFDB14F45E8CD5112A5)
Полное имя : E:\DOWNLOADS\Старый новый дом (2013) WEB-DLRip 1080\Старый новый дом - 01 серия.mkv
Формат : Matroska
Версия формата : Version 4 / Version 2
Размер файла : 1,33 Гбайт
Продолжительность : 45 м.
Общий поток : 4190 Кбит/сек
Дата кодирования : UTC 2014-06-08 20:12:46
Программа кодирования : mkvmerge v6.1.0 ('Old Devil') built on Mar 4 2013 09:10:42
Библиотека кодирования : libebml v1.3.0 + libmatroska v1.4.0

Видео
Идентификатор : 1
Формат : AVC
Формат/Информация : Advanced Video Codec
Профиль формата : High@L4.0
Параметр CABAC формата : Да
Параметр ReFrames формата : 3 кадра
Идентификатор кодека : V_MPEG4/ISO/AVC
Продолжительность : 45 м.
Битрейт : 4000 Кбит/сек
Ширина : 1920 пикселей
Высота : 1080 пикселей
Соотношение сторон : 16:9
Режим частоты кадров : Постоянный
Частота кадров : 25,000 кадров/сек
Цветовое пространство : YUV
Субдискретизация насыщенности : 4:2:0
Битовая глубина : 8 бит
Тип развёртки : Прогрессивная
Бит/(Пиксели*Кадры) : 0.077
Размер потока : 1,25 Гбайт (93%)
Библиотека кодирования : x264 core 120
Настройки программы : cabac=1 / ref=3 / deblock=1:0:0 / analyse=0x3:0x133 / me=umh / subme=7 / psy=1 / psy_rd=1.00:0.00 / mixed_ref=1 / me_range=32 / chroma_me=1 / trellis=2 / 8x8dct=1 / cqm=0 / deadzone=21,11 / fast_pskip=1 / chroma_qp_offset=-2 / threads=12 / sliced_threads=0 / nr=0 / decimate=1 / interlaced=0 / bluray_compat=0 / constrained_intra=0 / bframes=0 / weightp=0 / keyint=75 / keyint_min=26 / scenecut=40 / intra_refresh=0 / rc_lookahead=50 / rc=2pass / mbtree=0 / bitrate=4000 / ratetol=1.0 / qcomp=0.20 / qpmin=10 / qpmax=51 / qpstep=4 / cplxblur=20.0 / qblur=0.5 / vbv_maxrate=5000 / vbv_bufsize=5000 / nal_hrd=none / ip_ratio=1.40 / aq=1:1.00
Default : Да
Forced : Нет
Основные цвета : BT.709
Характеристики трансфера : BT.709
Коэффициенты матрицы : BT.709

Аудио
Идентификатор : 2
Формат : AC-3
Формат/Информация : Audio Coding 3
Расширение режима : CM (complete main)
Параметр Endianness формата : Big
Идентификатор кодека : A_AC3
Продолжительность : 45 м.
Вид битрейта : Постоянный
Битрейт : 192 Кбит/сек
Каналы : 2 канала
Расположение каналов : Front: L R
Частота : 44,1 КГц
Битовая глубина : 16 бит
Метод сжатия : С потерями
Размер потока : 62,6 Мбайт (5%)
Default : Да
Forced : Нет
Скриншоты:


Все раздачи сериала «Старый новый дом»

Время раздачи: с 10.00 до 20.00
[NNM-Club.me]_Staryiy novyiy dom (2013) WEB-DLRip 1080.torrent
 Торрент: Платиновая раздача  Зарегистрирован
 
Скачать


Примагнититься
 Зарегистрирован:   09 Июн 2014 08:54:23
 Размер:   2,66 GB  (
 Рейтинг:   3,8 (Голосов: 25)
 Поблагодарили:   69
 Проверка:   Оформление проверено модератором 09 Июн 2014 10:46:42
Как cкачать  ·  Как раздать  ·  Правильно оформить  ·  Поднять ратио!  
Топик был перенесен из форума Отечественные сериалы в форум Отечественные Фильмы (HD*Rip/LQ, DVDRip, SATRip, VHSRip)

Причина переноса: всего 2 серии - это еще не сериал.

Исправил релиз - напиши ЛС Kalex, дав ссылку на релиз.
Если нет ответа 24 часа - нажми на кнопку "Обратить внимание модераторов".
Показать сообщения:   
Начать новую тему   Ответить на тему    Торрент-трекер NNM-Club -> Отечественное кино -> Отечественные Фильмы (HD*Rip/LQ, DVDRip, SATRip, VHSRip) Часовой пояс: GMT + 3
Страница 1 из 1