Классический форум-трекер
canvas not supported
Нас вместе: 4 079 489

Война машин (2014) SATRip (Серии: 1-5 (?)) (обновляемая)


 
 
RSS
Начать новую тему   Ответить на тему    Торрент-трекер NNM-Club -> Документалистика и Телепередачи -> Вторая Мировая война
Автор Сообщение
Игорь_Вла​димирович​ ®
Стаж: 7 лет 8 мес.
Сообщений: 2523
Ratio: 1226,033
Раздал: 32,12 TB
Поблагодарили: 136844
100%
Война машин (2014) SATRip (Серии: 1-5 (?)) (обновляемая)

Режиссер / Телекомпания: Алексей Ракович / Беларусь, ОНТ
Год выпуска: 2014
Жанр: Документальный цикл
Описание:
Проект рассказывает об истории создания и боевом применении военной техники времен Великой Отечественной войны, о судьбах конструкторов и испытателей, подвигах солдат и офицеров, входивших в экипажи танков и самолетов, расчеты артиллерийских орудий и минометов.

Доп. информация:
Оригинальность проекта заключается в том, что повествование о том или ином образце техники идет на фоне поисковых работ и последующего его подъема из болот, рек и озер. Таким образом, в каждом фильме присутствуют элементы репортажа с места события.

В цикле «Война машин» снимались военные историки, ветераны войны, родственники героев, руководитель поисковой группы «Эхо войн» Игорь Матюк.
Сэмпл: Скачать

Релиз: жЫтель
Продолжительность: ~00:26:00 серия

Качество: SATRip
Формат: AVI
Видео: MPEG4, XviD, 640x480 (4:3), 25.000 fps, 2 052 Kbps (0.267 bit/pixel)
Аудио: MP3, 48.0 KHz, 2 ch, 128 Kbps, CBR
Документальный цикл "Война машин" на трекере NNM-Club



Серия 1. БТ-7. Летающий танк
Серия 2. Р-5. Партизанский ангел
Серия 3. ИС-2. Охотник на "Тигров"
Серия 4. ИЛ-2. Чёрная смерть
Серия 5. БКА-205. Речной разведчик
General
Complete name : F:\Сериал\документальное\Война.машин\Война машин. БТ-7. Летающий танк.avi
Format : AVI
Format/Info : Audio Video Interleave
File size : 406 MiB
Duration : 25mn 53s
Overall bit rate : 2 193 Kbps
Writing application : MEncoder SVN-r30881(20100311-gcc4.3.3)
Writing library : MPlayer

Video
ID : 0
Format : MPEG-4 Visual
Format profile : Advanced Simple@L5
Format settings, BVOP : Yes
Format settings, QPel : No
Format settings, GMC : No warppoints
Format settings, Matrix : Default (H.263)
Codec ID : XVID
Codec ID/Hint : XviD
Duration : 25mn 53s
Bit rate : 2 052 Kbps
Width : 640 pixels
Height : 480 pixels
Display aspect ratio : 4:3
Frame rate : 25.000 fps
Color space : YUV
Chroma subsampling : 4:2:0
Bit depth : 8 bits
Scan type : Progressive
Bits/(Pixel*Frame) : 0.267
Stream size : 380 MiB (94%)
Writing library : XviD 1.2.1 (UTC 2008-12-04)

Audio
ID : 1
Format : MPEG Audio
Format version : Version 1
Format profile : Layer 3
Mode : Joint stereo
Mode extension : MS Stereo
Codec ID : 55
Codec ID/Hint : MP3
Duration : 25mn 53s
Bit rate mode : Constant
Bit rate : 128 Kbps
Channel(s) : 2 channels
Sampling rate : 48.0 KHz
Video delay : 40ms
Stream size : 23.7 MiB (6%)
Alignment : Aligned on interleaves
Interleave, duration : 24 ms (0.60 video frame)
Interleave, preload duration : 504 ms
Внимание! Раздача ведётся путём добавления новых серий; при каждом добавлении создаётся новый торрент.
Чтобы начать докачку новой серии, пользователям необходимо сделать следующее:
1. Остановить скачивание;
2. Удалить старый торрент у себя из клиента (старые серии удалять не надо);
3. Скачать новый торрент и запустить его у себя в клиенте вместо старого, при этом указать клиенту путь в старую папку куда и должно происходить скачивание новых серий. Ваш клиент при этом должен произвести хеширование (проверку) старой папки и будет докачивать только те серии, которых у вас ещё нет. Старые серии при этом не удаляются, а продолжают раздаваться! Eсли вы уже удалили старые серии, то предотвратить повторную закачку старых серий можно, отжав галочку в соответствующих местах при запуске нового торрента.
Время раздачи: 9.00-23.00, до первых пяти скачавших
[NNM-Club.me]_Voyna.mashin.torrent
 Торрент: Платиновая раздача  Зарегистрирован
 
Скачать


Примагнититься
 Зарегистрирован:   08 Июл 2014 22:14:03
 Размер:   1,76 GB  (
 Рейтинг:   4,7 (Голосов: 88)
 Поблагодарили:   300
 Проверка:   Оформление проверено модератором 08 Июл 2014 22:26:23
Как cкачать  ·  Как раздать  ·  Правильно оформить  ·  Поднять ратио!  

_________________

Мои релизы
Kolbas
Стаж: 9 лет 5 мес.
Сообщений: 4
Ratio: 33,766
100%
Откуда: Измаил
ukraine.gif
Для игроков World of Tanks ! Спасибо !
Игорь_Вла​димирович​ ®
Стаж: 7 лет 8 мес.
Сообщений: 2523
Ratio: 1226,033
Раздал: 32,12 TB
Поблагодарили: 136844
100%
Добавлена 3-я серия.
Обновите торрент

_________________

Мои релизы
Kosheba
Стаж: 8 лет 6 мес.
Сообщений: 18
Ratio: 9,187
100%
Откуда: Ростов-папа
russia.gif
Kolbas писал(а): Перейти к сообщению
Для игроков World of Tanks ! Спасибо !

И не только!!! Спасибо!!!)))
Olivko85
 
Стаж: 8 лет 4 мес.
Сообщений: 64
Ratio: 3,621
100%
russia.gif
Я так понял это белорусы снимают - молодцы!!! особый интерес фильмам добавляет освещение операций по поиску и подъему техники. Хотя и косяков хватает, так тех же серийных "полноприводных" БТ не было. Были эксперименты в этом направлении под индексом БТ-5 (БТ-2)-ИС у которых на колесном ходу были ведущие три пары опорных катков, но они (если верить первому тому серии книг "Отечественные бронированные машины - XX век") на вооружение не принимались и в серийном производстве не состояли.
Но опять же повторюсь фильмы весьма интересные, от меня 5 с малюсеньким минусом.
Игорь_Вла​димирович​ ®
Стаж: 7 лет 8 мес.
Сообщений: 2523
Ratio: 1226,033
Раздал: 32,12 TB
Поблагодарили: 136844
100%
Добавлена 4-я серия.
Обновите торрент.

_________________

Мои релизы
Игорь_Вла​димирович​ ®
Стаж: 7 лет 8 мес.
Сообщений: 2523
Ratio: 1226,033
Раздал: 32,12 TB
Поблагодарили: 136844
100%
Добавлена 5-я серия.
Обновите торрент.

_________________

Мои релизы
k_kotsarev
Стаж: 10 лет 1 мес.
Сообщений: 235
Ratio: 34,447
100%
Откуда: г. Киев
ukraine.gif
Спасибо, интересно будет посмотреть.
LORIN-17
Стаж: 7 лет 9 мес.
Сообщений: 8
Ratio: 4,601
100%
belarus.gif
пора бы уже 6 вылаживать...
cat75000
Стаж: 7 лет 8 мес.
Сообщений: 355
Ratio: 98,032
100%
ussr.gif
а пятая серия была последней, или ждать сразу трех новых?
LORIN-17
Стаж: 7 лет 9 мес.
Сообщений: 8
Ratio: 4,601
100%
belarus.gif
на каком-то сайте видел и почти посмотрел шестую - там про пушку какую-то....

а вообще у нас в беларуси они выходят по телику 1 раз в 2 недели ....
LORIN-17
Стаж: 7 лет 9 мес.
Сообщений: 8
Ratio: 4,601
100%
belarus.gif
http://www.youtube.com/watch?v=gDQCbhHNEws&index=2&list=PLuGCnujoOtrdhl8e7Gn_kqRp4e2v2WzKz

6 серия Война машин. ПА-27. Незаменимая полковушка
Показать сообщения:   
Начать новую тему   Ответить на тему    Торрент-трекер NNM-Club -> Документалистика и Телепередачи -> Вторая Мировая война Часовой пояс: GMT + 3
Страница 1 из 1