Классический форум-трекер
canvas not supported
Нас вместе: 4 079 140

За тех, кто в море (1947) SATRip


 
 
RSS
Начать новую тему   Ответить на тему    Торрент-трекер NNM-Club -> Классика кино и Старые фильмы до 90-х -> Отечественная Классика (HD*Rip/LQ, DVDRip, SATRip, VHSRip)
Автор Сообщение
nnmclub0112 ®
Стаж: 7 лет 9 мес.
Сообщений: 3894
Ratio: 96,997
Поблагодарили: 249597
100%
За тех, кто в море (1947) SATRip
Год выпуска: 1947
Жанр: Военный, Драма

Описание фильма:
По пьесе Б.Лавренева.
В погоне за быстрой славой капитан Боровский сообщил командиру отряда торпедных катеров неверные координаты и без его "помощи" атаковал противника, что привело к потере катера и гибели команды. Командование дает Боровскому шанс искупить свою вину делом...

Режиссер: Александр Файнциммер
Актеры: Павел Шпрингфельд, Михаил Жаров, Нинель Мышкова, Даниил Сагал, Александра Тришко, Дмитрий Павлов, Иван Любезнов, Геннадий Карнович-Валуа, Степан Крылов, Георгий Куровский

Продолжительность: 01:17:17
Качество видео: SATRip



Видеокодек: Xvid
Битрейт видео: ~3465 Кбит/сек
Размер кадра: 720x544
Аудиокодек: MP3, 2 ch
Битрейт аудио: 128 Кбит/сек
Общее
Полное имя : E:\Интересно\!Подг\За тех, кто в море (1947)\За тех, кто в море (1947) SATRip.avi
Формат : AVI
Формат/Информация : Audio Video Interleave
Размер файла : 1,94 Гбайт
Продолжительность : 1 ч. 17 м.
Общий поток : 3600 Кбит/сек
Программа кодирования : VirtualDubMod 1.5.4.1 (build 2178/release)
Библиотека кодирования : VirtualDubMod build 2178/release

Видео
Идентификатор : 0
Формат : MPEG-4 Visual
Профиль формата : Advanced Simple@L5
Параметр BVOP формата : 1
Параметр QPel формата : Нет
Параметр GMC формата : Без точки перехода
Параметр матрицы формата : Выборочная
Идентификатор кодека : XVID
Идентификатор кодека/Подсказка : XviD
Продолжительность : 1 ч. 17 м.
Битрейт : 3465 Кбит/сек
Ширина : 720 пикселей
Высота : 544 пикселя
Соотношение сторон : 4:3
Частота кадров : 25,000 кадров/сек
Цветовое пространство : YUV
Субдискретизация насыщенности : 4:2:0
Битовая глубина : 8 бит
Тип развёртки : Прогрессивная
Метод сжатия : С потерями
Бит/(Пиксели*Кадры) : 0.354
Размер потока : 1,87 Гбайт (96%)
Библиотека кодирования : XviD 1.2.0.dev47 (UTC 2006-11-01)

Аудио
Идентификатор : 1
Формат : MPEG Audio
Версия формата : Version 1
Профиль формата : Layer 3
Режим : Joint stereo
Расширение режима : MS Stereo
Идентификатор кодека : 55
Идентификатор кодека/Подсказка : MP3
Продолжительность : 1 ч. 17 м.
Вид битрейта : Постоянный
Битрейт : 128 Кбит/сек
Каналы : 2 канала
Частота : 48,0 КГц
Метод сжатия : С потерями
Размер потока : 70,8 Мбайт (4%)
Выравнивание : Соединение по промежуткам
Продолжительность промежутка : 80 мс. (2,00 видеокадра)
Время предзагрузки промежутка : 504 мс.
Скриншоты:




Время раздачи: С 10:00 до 23:00

Все релизы "За тех, кто в море (1947) на NoNaMe Club
[NNM-Club.me]_Za teh, kto v more (1947) SATRip.avi.torrent
 Торрент: Платиновая раздача  Зарегистрирован
 
Скачать


Примагнититься
 Зарегистрирован:   12 Июн 2014 21:22:47
 Размер:   1,94 GB  (
 Рейтинг:   4,7 (Голосов: 41)
 Поблагодарили:   105
 Проверка:   Оформление проверено модератором 15 Июн 2014 02:00:21
Как cкачать  ·  Как раздать  ·  Правильно оформить  ·  Поднять ратио!  
Загрузка...
Показать сообщения:   
Начать новую тему   Ответить на тему    Торрент-трекер NNM-Club -> Классика кино и Старые фильмы до 90-х -> Отечественная Классика (HD*Rip/LQ, DVDRip, SATRip, VHSRip) Часовой пояс: GMT + 3
Страница 1 из 1