Классический форум-трекер
canvas not supported
Нас вместе: 4 093 320

Открытый перелом / Compound Fracture (2013) WEB-DLRip [H.264/720p-LQ]


 
 
RSS
Начать новую тему   Ответить на тему    Торрент-трекер NNM-Club -> Зарубежное кино -> Зарубежные Фильмы (HD*Rip/LQ, DVDRip, SATRip, VHSRip)
Автор Сообщение
Armaturianec ®
Стаж: 8 лет
Сообщений: 65
Ratio: 35,052
Поблагодарили: 4209
100%
russia.gif
Открытый перелом / Compound Fracture (2013) WEB-DLRip
Год выпуска: 2013
Производство: США | Mane Entertainment
Жанр: Ужасы, Триллер

Режиссер: Энтони Дж. Рикерт-Эпстин
Продюсер: Рене Гирлингс, Тайлер Мэйн, Энтони Дж. Рикерт-Эпстин,Джон Сондерс.Robert Ziglar
Актеры: Тайлер Мэйн, Мьюз Уотсон, Дерек Мирс, Лесли Истербрук, Рене Гирлингс, Алекс Саксон, Сьюзэн Анджело, Джелли Хоуи, Дэниэл Робак, Тодд Фармер

Описание фильма:
Сюжет фильма о том, как на глазах у своего сына отец убивает мать. Паренька берет в опеку родной дядя с женой и они вместе уезжают жить к дедушке, пытаясь наладить новый быт. Но все не так просто дедушка не совсем вменяем и здесь же появляется призрак его брата убийцы. Призрак хочет уничтожить всех членов семьи.

Перевод: Двухголосый закадровый, любительский
Озвучка / Автор перевода: DeadSno & den904
перевод на русский язык [МЕГАПЫХАРЬ & ОХ! Студия]
Субтитры: Английские



Дата мировой премьеры: 13 мая 2014

Возраст: 18+

Продолжительность: 01:30:59
Качество видео: WEB-DLRip

Видеокодек: MPEG-4 AVC/H.264
Битрейт видео: ~3602 kb/s
Размер кадра: 1280x532
Аудио #1: AC3, 384 kb/s /6 ch (Русский)
Аудио #2: AC3, 384 kb/s /6 ch (Английский)
Дополнительно: Сохранены оригинальные чаптеры как на Blu-Ray
Сэмпл: Скачать
Format : Matroska
Format version : Version 4 / Version 2
File size : 2.83 GiB
Duration : 1h 30mn
Overall bit rate : 4 459 Kbps
Movie name : Release Group [SPAM]
Encoded date : UTC 2014-05-24 07:26:22
Writing application : mkvmerge v6.9.1 ('Blue Panther') 64bit built on Apr 18 2014 18:23:38
Writing library : libebml v1.3.0 + libmatroska v1.4.1

Video
ID : 1
Format : AVC
Format/Info : Advanced Video Codec
Format profile : High@L4.0
Format settings, CABAC : Yes
Format settings, ReFrames : 4 frames
Codec ID : V_MPEG4/ISO/AVC
Duration : 1h 30mn
Bit rate : 3 602 Kbps
Nominal bit rate : 3 800 Kbps
Width : 1 280 pixels
Height : 532 pixels
Display aspect ratio : 2.40:1
Frame rate mode : Constant
Frame rate : 23.976 fps
Color space : YUV
Chroma subsampling : 4:2:0
Bit depth : 8 bits
Scan type : Progressive
Bits/(Pixel*Frame) : 0.221
Stream size : 2.29 GiB (81%)
Title : Release Group [SPAM]
Writing library : x264 core 130 r2273 b3065e6
Encoding settings : cabac=1 / ref=4 / deblock=1:0:0 / analyse=0x3:0x113 / me=umh / subme=8 / psy=1 / psy_rd=1.00:0.00 / mixed_ref=1 / me_range=16 / chroma_me=1 / trellis=1 / 8x8dct=1 / cqm=0 / deadzone=21,11 / fast_pskip=1 / chroma_qp_offset=-2 / threads=12 / lookahead_threads=2 / sliced_threads=0 / nr=0 / decimate=1 / interlaced=0 / bluray_compat=0 / constrained_intra=0 / bframes=3 / b_pyramid=2 / b_adapt=2 / b_bias=0 / direct=3 / weightb=1 / open_gop=0 / weightp=2 / keyint=240 / keyint_min=24 / scenecut=40 / intra_refresh=0 / rc_lookahead=50 / rc=abr / mbtree=1 / bitrate=3800 / ratetol=1.0 / qcomp=0.60 / qpmin=0 / qpmax=69 / qpstep=4 / vbv_maxrate=25000 / vbv_bufsize=31250 / nal_hrd=none / ip_ratio=1.40 / aq=1:1.00
Language : English
Default : Yes
Forced : No
Color primaries : BT.709
Transfer characteristics : BT.709
Matrix coefficients : BT.709

Audio #1
ID : 2
Format : AC-3
Format/Info : Audio Coding 3
Mode extension : CM (complete main)
Format settings, Endianness : Big
Codec ID : A_AC3
Duration : 1h 30mn
Bit rate mode : Constant
Bit rate : 384 Kbps
Channel count : 6 channels
Channel positions : Front: L C R, Side: L R, LFE
Sampling rate : 48.0 KHz
Bit depth : 16 bits
Compression mode : Lossy
Stream size : 250 MiB (9%)
Title : Влади и Снежинка
Language : Russian
Default : Yes
Forced : Yes

Audio #2
ID : 3
Format : AC-3
Format/Info : Audio Coding 3
Mode extension : CM (complete main)
Format settings, Endianness : Big
Codec ID : A_AC3
Duration : 1h 30mn
Bit rate mode : Constant
Bit rate : 384 Kbps
Channel count : 6 channels
Channel positions : Front: L C R, Side: L R, LFE
Sampling rate : 48.0 KHz
Bit depth : 16 bits
Compression mode : Lossy
Stream size : 250 MiB (9%)
Language : English
Default : No
Forced : No

Text
ID : 4
Format : UTF-8
Codec ID : S_TEXT/UTF8
Codec ID/Info : UTF-8 Plain Text
Language : English
Default : No
Forced : No

Menu
00:00:00.000 : en:Chapter 1
00:06:21.005 : en:Chapter 2
00:12:13.023 : en:Chapter 3
00:16:24.066 : en:Chapter 4
00:23:22.067 : en:Chapter 5
00:27:54.047 : en:Chapter 6
00:34:00.038 : en:Chapter 7
00:42:10.027 : en:Chapter 8
00:45:38.026 : en:Chapter 9
00:51:20.035 : en:Chapter 10
00:58:40.058 : en:Chapter 11
01:02:50.016 : en:Chapter 12
01:07:45.019 : en:Chapter 13
01:13:11.053 : en:Chapter 14
01:17:44.076 : en:Chapter 15
01:25:25.036 : en:Chapter 16
Скриншоты:




Время раздачи: 24/7
[NNM-Club.me]_Compound.Fracture.2013.mkv.torrent
 Торрент: Платиновая раздача  Зарегистрирован
 
Скачать


Примагнититься
 Зарегистрирован:   14 Июн 2014 08:25:01
 Размер:   2,83 GB  (
 Рейтинг:   4,5 (Голосов: 22)
 Поблагодарили:   80
 Проверка:   Оформление проверено модератором 15 Июн 2014 15:46:50
Как cкачать  ·  Как раздать  ·  Правильно оформить  ·  Поднять ратио!  
alexall
Стаж: 9 лет 3 мес.
Сообщений: 385
Ratio: 5,938
Раздал: 10,23 TB
100%
pirates.png
Забыли люди фильм посмотреть ведать.
alexall
Стаж: 9 лет 3 мес.
Сообщений: 385
Ratio: 5,938
Раздал: 10,23 TB
100%
pirates.png
Раздача почему-то не прёт.... Други фильмы прут, этот не прёт....
Показать сообщения:   
Начать новую тему   Ответить на тему    Торрент-трекер NNM-Club -> Зарубежное кино -> Зарубежные Фильмы (HD*Rip/LQ, DVDRip, SATRip, VHSRip) Часовой пояс: GMT + 3
Страница 1 из 1